アットウィキロゴ

VIIIbit Explorer〈でらっくす〉

アーティスト Lime

BPM BASIC ADVANCED EXPERT MASTER Re:MASTER
188 6 8 13 14+ -

EXPERT MASTER Re:MASTER
譜面制作者 Jack -ZONE- SaFaRi -

BASIC


ADVANCED


EXPERT

(188)
{8}3,24,6,57,36,27,1x/8x,,{1}B2/B3/B6/B7/E3/E7/Cf,{8},,,,,,,4x/5x,
{1}B2/B3/B6/B7/E3/E7/Cf,{16}1,8,1,8,2x/7x,,3x/6x,,4hx[8:1]/5hx[8:1],,,1hx[8:1]/8hx[8:1],,,2x/7x,,
{4}2x/7x,3,4,5,6,5,4,{8}3,1x/8x,{4}1s5[4:1]/8z4[4:1],,,B2/B3/B6/B7/E4/E6,1b,2b,3bw7[8:1],,
{8}1x/5x,2,3,4,{16}5/6h[16:3],,,7h[16:3],,,8,,3h[16:3]/4,,,2h[16:3],,,{8}1,8,8,1,1,
1x/8x,7,6,5,{16}3h[16:3]/4,,,2h[16:3],,,1,,5x/6h[16:3],,,7h[16:3],,,8,,1x,,8,1x,8,,2x/7x,,
{8}2x/7x,3,4,5,6^3[8:1],7,,,1-5[8:1]/2-4[8:1],12,,,7-5[8:1]/8-4[8:1],78,,,
{16}1,8,1,8,2,7,2,7,3,6,3,6,4,5,4,5,{4}E5,C,{16}E1,,2x/7x,3x/6x,4b-1[8:1]/5b-8[8:1],,,,
{8},,27,6,5,4,3,2,{16}7,8,7,,2,1,{8}2,38,47,5x/6x,,
12,12,3,4,5,6,7,8,{16}3,4,3,,6,5,6,,{2}3-8[8:1]/7-4[8:1],
{8}2x/6x,,37,4,5,6,7,8,{16}2,1,2,,7,8,{8}7,16,25,3x>6[4:3]/4xq5[4:3],,
{1},{4}2b/B5/E6,7b/B4/E4,1b^4[8:1]/8b^5[8:1],1x/8x,
{8}36,4,5,6,78,{4}7/8-3[8:1],7-4[8:1],2-5[8:1],1-6[8:1],4-8[8:1],{8}5,
5,6,7,8,12,{4}1/2-4[8:1],8-6[8:1],1-5[8:1],7h[4:1],{16}2,,1,8,1,8,
{8}2x/7x,3,3,3,4x/5x,6,6,6,3x/7x,2,2,2,1x/6x,7,7,7,
3x/8x,2,1x/6x,7,4x/8x,3,1x/5x,6,{16}4x/8x,3x,2x,1x,8x,7x,6x,5x,3x/4x,,1x,8x,1x>8[1:3],,,,{0.25}Cf,
{8}3,,4,,5,5,,6^3[4:1],,,,,,3,4,5,6,,{16}4,4,{8}4,,,3,3^6[4:1],,,,,,,,7,
{4}7h[4:1],6h[4:1],5,{8}2,{4}2h[4:1],3h[4:1],4,{8}5,5,4,
,4,4,,6,5,4,3,,1h[16:1],2h[16:1],3h[16:1],4h[16:1],5h[16:1],6h[16:1],7h[16:1],
{2}1x/8x,E1,E3,E5,E7,{8}8,8,1,{4}1,18,27,36,{16}4,5,
{4}4h[2:1],3,5h[2:1],6,4h[2:1],2,5h[2:1],7,4h[2:1],1,5h[2:1],8,
4b,,{24}E5,E4,E3,E2,E1,E8,E7,E6,E5,,,,
{8}1x/8x,,2-5[8:1],2,{4}6-1[8:1],2q5[2:1],8x,,,{8},4x/5x,
3x/8x,,7-4[8:1],7,{4}3-8[8:1],7p4[2:1],1x,,{16}2hx[16:3],,,3hx[16:3],,,4x,,
{8}1x/6x,,2x-5[8:1],2,{4}6-1[8:1],3-8[8:1],7-4[8:1],{8}3,2,1h[4:1]/8h[4:1],,,1x/8x,
2x/7x,,4-2[8:1],4,5-7[8:1],5,1h[2:1],,8h[4:1],,,18,1-5[8:1]/8-4[8:1],,,,
{4}3h[8:1]/6h[8:1],3h[8:1]/4h[8:1],3h[8:1]/8h[8:1],2h[8:1]/3h[8:1],3h[8:1]/7h[8:1],1h[8:1]/3h[8:1],3-5[8:1]/5h[8:1],8b,
3h[8:1]/6h[8:1],6h[8:1]/8h[8:1],5h[8:1]/6h[8:1],2h[8:1]/6h[8:1],6h[8:1]/7h[8:1],1h[8:1]/6h[8:1],4h[8:1]/6h[8:1],{8},46,
46,35,35,47,47,25,2h[4:1]/5,,1,38,4x/7hx[4:1],,8,16,{2}2xz6[4:1]/5x,7xs3[4:1],{4}2x,1b,2b,3bw7[8:1],,
{8}1x/5x,2,48,7,1x/5x,3,48,6,{4}1x/5x^8[8:1],1,18,{16}1x/8x,2x,3x,4x,
{8}5x/6x,7,3x/4x,2,5x/6x,8,3x/4x,1,{4}5x-1[8:1]/6,6,1/6h[4:1],{16}1x,2x,3x,4x,
{8}5x/6x,7,18,2,{2}3x-8[8:1]/4x-7[8:1],{8}1x/6x,,38,47,{2}5x-2[8:1]/6x-1[8:1],
{8}3x/8x,7,1x/6x,2,{2}3x^8[8:1]/8x^5[8:1],4bw8[8:1],2b/6b,
{8}3hx[16:3]/7hx[16:3],,1b/5b,,4x/8x,6,15,2,{4}4x^1[8:1]/8x,8,18,{16}1x/8x,7x,6x,5x,
{8}3x/4x,2,5x/6x,7,3x/4x,1,5x/6x,8,3x/4x-8[8:1],,3,,38,47,{16}6x,5x,6x,,
{8}3x/4x,2,18,7,{2}5x-2[8:1]/6x-1[8:1],{8}3x/8x,,16,25,{2}3x-8[8:1]/4x-7[8:1],
{8}1x/6x,2,3x/8x,7,{2}1x^4[8:1]/6x^1[8:1],5bw1[8:1],B3/B7/Cf/E4/E8,
{8}1^6[8:1]/2,,2,,24,4,2,6,2,8h[8:3],2,,2,7,26,5,
{2}2-4[8:1]/4-8[8:1],{8}57,5,7,3,7,1h[8:3],7,,7,2,37,4,
{2}7-5[8:1]/5-1[8:1],2-4[8:1]/4-8[8:1],{8}57,6,24,3,68,7,13,2,
,45,45,,18,27,36,4qq1[4:3]/5pp8[4:3],{1},
{16}1,8,1,8,{4}2x/7x,{2}3h[2:1],4h[2:1],5h[2:1],6h[2:1],{8}5,4,3,27,2x/7x,{16}3x,4,2b,,6x,5,7b,,3x,4,1b,,6x,5,8b,,
{8}2,2,2,1x/8x,7,7,7,2x/6x,3,3,3,4x/7x,6,6,6,
{16}4,5,4,5,4,5,4,5,3,6,3,6,3,6,3,6,2,7,2,7,2,7,2,7,
{24}1x/8x,2x,3x,4x,5x,6x,7x,8x,1x,2x,3x,4x,
{1}5x/Ch[1:1],,,
E

MASTER

(188)
{16}3,4,,6,5,,4,5,4,5,4,,5,,46,,
{4}3hx[4:7]/7b,,,,,,,{16}4,,3,4,{1}2b/5hx[1:1],{32}E4,B4,B5,E6,,,,,{16}7,,7,,7x/8x,,,1x/8x,,,1x/2x,,
{4}3hx[4:7]/8b,E1,E8,E7,C,E7,E6,{16}4x,,3,4,{4}1bs5[4:1]/6hx[2:1],,,7x/8x,1b,2b,{8}3b-1[8:1],4b,3b/5b,,
{4}8hx[1:1],E1,C,E5,3h[4:3],E6,E5,{16}4,,3b,4b,{4}2hx[1:1]/5b,E5,C,E1,1hx[2:1],2,{16}2x,,,3x/4x,,,5x/6x,,
{8}4b/7b,4,5,5,2-4[8:1],4-8[8:1],,,7V51[4:1],1,,,4,3,2x/8x,,
{16}1,8,1,8,1,8,1,8,{32}1,2,3,4,5,6,7,8,1,2,3,4,5,6,7,8,{4}1x,2x,{16}3x,,8,1,2b/7b,,,,
{8}3b/5b,,26,6,{16}1,5,2,4,3,,3,,6,5,7,4,8,4,7,5,{8}6,4,3x/5x,2,
5x,5x,46,4,{16}7,5,6,5,7,,7,,3,4,3,4,2,,17,,{32}1b/7b,6,5,4,,,,,2b/8b,3,4,5,,,,,
{8}1b/7b,,36,3,{16}8,4,7,5,6,,6,,1,5,2,4,3,4,2,5,{8}1,56,4b/7b,,
{16}1x/2,,2,4,2,,2/6x,,7,8x,7,,5x/7,,6x,,{4}4x^1[8:1]/5-1[8:1],4-8[8:1]/5x^8[8:1],4x/5,2b/6b,
{8}1-3[16:1],8,1-5[8:1],5-3[16:1],1,7-3[16:1],8,7-1[16:1],4,7-5[16:1],2-4[16:1],7,2-6[16:1],7,2,8,
8-6[16:1],1,8-4[8:1],4-6[16:1],8,2-6[16:1],1,2-8[16:1],4,2-4[16:1],7-3[16:1],2,7,1,{16}2,4,3,5,
{8}4b-8[8:1],,5,6,7,{4}3/8-3[8:1]*^3[8:1],8-4[8:1],8-5[8:1]*^5[8:1],8,{24}18,,,1,2,3,5,6,7,
{8}1b/8b,,36,27,{16}1,8,1,8,1,7,2,6,{24}3b,4,5,6,7,8,{32}1,2,3,4,5,6,7,8,
{48}1,2,3,4,5,6,7,8,1,2,3,4,{4}5b,{1}2b>8[4:11]/7b<1[4:11],,,,
{8}3h[4:3],,,,,,5,5,,4/6h[8:7],,,,,,,4,,{16}5,5,{8}5,46,,3,3^6[4:1],,,,,,,,,
{4}5h[4:1],4h[4:1],5h[4:1],{8}4,4,,35,,46,,5,5,,46,,35,,4,4,5,5,{16}4,5,4,5,4,5,4,5,4,5,4,5,4h[4:17],,,,
{2}E4,B2,E1,B7,E6,E3,E1,C,5<3[4:3],B3/B5,4>6[4:3],B4/B6,5h[2:3],C,4x,{32}E5,E6,E7,E8,E1,E2,E3,E4,{4}E5,
{8}6x,,56,5,{4}5-2[8:1]/6,7p4[2:1],1h[2:1],,,{8}3/4x,4/5x,
5/6x,,56,5,{4}5-1[8:1]/7,8<4[4:1],2h[2:1],,{16}4x,,,5x/6,,,4/7x,,
{8}4x/7,,34,4,{4}3/4h[4:1],2h[4:1],8h[4:1],{8}5,5,57,,56,6x,
4/6x,,34,4,{4}2/4-8[8:1],1>7[2:1],7b,,8,1,
2h[1:1]/7,3,B7,B3,6h[1:1],C,2hx[1280:1],5,4hx[2:1],B3/B5,6h[2:1],B5/B7,3h[4:1],B2/B4,3-8[8:1]/6-1[8:1],,
{8}7x,7,5,6,2-4[8:1],4-8[8:1],,,7V51[4:1],1,,,4,3,2x/8x-4[8:1],,
1hx[4:1],,{24}5,6,7,1,2,3,{4}4-8[8:1],8x,1b,2b,{8}3b-1[8:1],4b,3b/5b,,
{16}7b/8b,,6,5,7^4[8:1],,8,1,{8}7,3,12,3,45,{16}6,5,7-3[8:1],,8-4[8:1],1,{8}7,8,5,3,
{16}28,,7,5,6,,34,,{24}2^5[8:1],1,8,7,,,1,8,7,6,,,{16}5x/6,,7,5,6,3,4,2,8,4,5,1,3b/7b,,,,
{16}46,,3,4,2-6[8:1],,1-5[8:1],8,{8}2,1,4,6,37,{16}2,1,{8}3,48,2b/6b,,45,6,
4/7-4[8:1],8,3-8[8:1]/7,2,3-6[8:1]/7-2[8:1],,37,,4b/8b,,2^5[8:1]/6^1[8:1],1,26,,3b/7b,,
{32}5,4,5,,{16}3,6,2^5[8:1],,1,8,{8}2^7[8:1],6,27,6,45,{16}3,4,2-6[8:1],,1-5[8:1],8,{8}2^5[8:1],1,2,6,
78,{24}1,2,3,4,,,{8}56,{24}7^4[8:1],8,1,2,,,8,1,2,3,,,{16}3/4x,,2,4,3,6,5,7,1,5,4,8,2b/6b,,,,
46,,{24}7b^4[8:1],8,1,2,,,8b,1,2,3,,,{32}1b,28,37,46,{8}5,4x/6x,
3x/5x,{24}2b^5[8:1],1,8,7,,,1b,8,7,6,,,{32}8b,17,26,35,{8}4,3x/5x,
{16}2,4,3,8,6,7,1,8,{32}1,2,3,4,5,6,7,8,1x,2,3,4,5,6,7,8,{4}1x/5xp4[16:5],,,2b/7b,
{16}3,4,3,4,2,5,2,5,1,2,3,4,8,7,6,5,2,1,2,1,3,8,3,8,2,3,4,5,8,7,6,5,
2,4,2,4,1x,6x,1x,6,5,7,5,7,3,5,3,5,1,2,3,4,7,6,5,4,2,3,4,5,6,7,8,1,
2,1,2,1,3,6,3,6,8,7,8,7,2,1,2,1,2,3,4,5,1,2,3,4,7,6,5,4,8,7,6,5,
2,4,2,4,8,7,8,7,2,1,2,1,3,6,4,5,2b,4b,3b,6b,5b,7b,1b,8b,2b,6b,4b,5b,1b,,,,
{8}8b/Cf,,,,,,,5x/6,B2/B3/E4/Cf,,,,{16}5x/6,,,4x/5,,,3x/4,,
{8}B6/B7/E6/Cf,,,,,,,1b/8b,1h[2:1]/8b,{32}E3,B3,B4,E5,,,,,E7,B6,B5,E5,{16},,,1/8x,,,2x/7,,
{8}3b-8[8:1],7-3[8:1],3,7,1,{16}2,2,,6,5,,4b/5b,,3,24,,7,68,,2,13,,7,8,5,4,1,
{8}2b^5[8:1],6-2[8:1],2,6,1,{16}1,8,1,8,2,7,{24}3b,4,5,6,7,8,{32}1,2,3,4,5,6,7,8,
{48}1,2,3,4,5,6,7,8,1,2,3,4,{4}5b/Cf,
3b/7bp4[8:5],,,{24},E2,C,{1}E6,,,
E

Re:MASTER


  • MASTER譜面の配置ミス、SLIDEの速さの修正を行いました。 -- けもがみ (2026-01-27 19:03:37)
名前:
コメント:

タグ:

+ タグ編集
  • タグ:
最終更新:2026年03月26日 21:41