BASIC
ADVANCED
EXPERT
(188){8}5,5,4,4,5/4,,3b/6b,,{1}2b/7h[1:1],{8},,,,,,3,4,{4}5b/2h[4:3],,,3>6[2:1],,,{16}4,,,4,,,3/5,,{4}3b/5b,2,1/2,7,8/7,6,5/6,{8}4,4,{4}4z8[2:1],,,7h[4:3],1b,2b,3b-8[8:1],,1b/7b,5/6,3/4,1/2,3/8,1/2,3/4,2-6[8:1]/5,8b,7,5/7,4/5,2/5,{16}1,,1,,4h[16:3],,,3h[16:3],,,5,,{8}3/5,,2/6,2/6,2/6,,8,,3/7,,1,,2/5,,7h[4:1]/8,,1,1,6,6,3,3,5h[4:3],,4,,4,,4,3/6,2b-5[8:1]/7b-4[8:1],,
{8},,,,6,6,5,5,7h[4:1],,8,,1/6,,3/8,,5/6,,3/4,,2,2,1,1,3h[4:1],,4,,1b/6b,,8b/3b,,2b/7b,,2/7,,6,6,5,5,7h[4:1],,1,,4/6,,3>6[2:1]/5,,,,,,,,4/5,,2/4,,5/7,,1-5[8:1],,8b,,4/6,,2/8,,3/4,3-7[8:1]/4,,5-1[8:1],,2-6[8:1],,8h[4:1],,5,,4/6,4/6,,2h[4:1],,1,1-5[8:1],,3-7[8:1],,6-2[8:1],,4h[4:1],,1,,3/8,3/8,,5/6,,3/4,3/4-8[8:1],,1-5[8:1],,7-3[8:1],,4,,2,2-7[8:1]*>5[8:1],,,,6-3[8:1]*<1[8:1],,,,2pp5[4:3],,,,,,,,1b,,
{1}3h[1:2]/7b,,,,{8}6,,5,,4,4,,3<6[4:1],,,,,,,,,{16}3/6,,,,5,4,5,,,,,,6,,6>3[4:1],,{8},,,,,,,3,3h[4:1],,4h[4:1],,5,,6,6h[4:1],,5h[4:1],,4,,4,,4/5,,4,4,,6,5,4,3q5[8:5],{2},,6h[2:1],7h[2:1],8h[2:1],1h[2:1],2h[2:1],3h[2:1],4h[2:1],5h[2:1],6h[1:1],5,3h[1:1],4,5h[1:1],4h[1:1],,8b,
{8}1/8,,2,2,4h[4:1],,6h[4:1],,8,,8,,2/6,,1,8,2/7,,6,6,6/5h[4:1],,3h[4:1],,1,,1,,7/3,,8,1,7/2,,3,4,5,,4/7h[4:1],,6,,8,1,2/6,,4,5,3/6,,3/6,,2/7,,1>8[4:3]/8,,{4},,,,2h[8:1]/7h[8:1],2h[8:1]/7h[8:1],2h[8:1]/4h[8:1],2h[8:1]/5h[8:1],2h[8:1]/4h[8:1],2-4[8:1]/6-4[8:1],,,6h[8:1]/3h[8:1],6h[8:1]/3h[8:1],6h[8:1]/5h[8:1],6h[8:1]/1h[8:1],6h[8:1]/4h[8:1],6h[8:1]/2h[8:1],3h[8:1]/5h[8:1],{8},2,2,3,4,5,6,7,5/8h[4:1],,3,3,2h[4:1]/6,,5,6,1s5[4:1]/7,,,,6>3[4:1],,,,2,,1b/4h[2:1],,2b,,3b-8[8:1],,5b,,
{8}4/6,7,2/8,3,4/5,3,1/2,8,4/7-3[8:1],,1-5[8:1],,6,,7,7,4/7,3,1/2,8,5/7,8,1/2,3,4/7-2[8:1],,5-1[8:1],,8,,6,6,5/6,7,1/8,2,3-8[8:1]/4-7[8:1],,,,5/6,,5/6,4/7,3-8[8:1]/8-5[8:1],,,,1/6,2,3/8,7,6<1[8:1]/1>4[8:1],,,,5w1[8:1],,,,3b/7b,,,,2/6,2/6,1b/5b,,4/6,7,1/8,2,3-8[8:1]/5,,7-4[8:1],,1,,3,3,3/5,2,1/8,7,4/6,7,8,1,2-6[8:1]/4,,5-1[8:1],,4,,2/8,,3/4,2,1/8,7,5-2[8:1]/6-1[8:1],,,,4/3,,4/3,5/2,6-1[8:1]/1-4[8:1],,,,3/8,2,1/6,7,3>8[8:1]/8<5[8:1],,,,4w8[8:1],,,,6b/2b,,,,
{4}6-1[8:1],5-2[8:1],7-4[8:1],8-3[8:1],5-8[8:1],2-5[8:1],7-2[8:1],4w8[8:1],,2b/6b,3-8[8:1]/7-4[8:1],,1>4[8:1]/5<8[8:1],,3/7,2-5[8:1]/6,4-7[8:1],3-8[8:1],1-6[8:1],5-2[8:1],7-4[8:1],1-6[8:1],5,3/5,{8}2,2,4,4,5,5,7,7,{16}1,8,1,8,1,8,1,8,2,7,2,7,2,7,2,7,
{4}2,4b/5b,6h[2:1],,4h[2:1],,2h[2:1],,8h[2:1],,{8}7,7,4,4,{16}3/6,,2,1,2b,,7,8,7b,,3,4,3b,,6,5,6b,,{8}4/7,4/7,4/7,6,5,4,3,1/2,8,7,6,5/3,2,1/8,1/8,{16}1,8,1,8,1,8,1,8,2,7,2,7,2,7,2,7,3,6,3,6,3,6,3,6,4,5,4,5,3b/6b,,,,{4}1b/8h[4:3],,,{24}6,5,4,E
MASTER
(188)
{16}3,4,,4,5,,{8}46,3/7-3[8:1],28,37,,
1b,1,8,8,{16}1h[16:3],,,2h[16:3],,,3,,7h[16:3],,,6h[16:3],,,5,,
{8}5,3-8[8:1],7-4[8:1],3b,7b,1,2,3,{16}8h[16:3],,,7h[16:3],,,6,,
{24}2,3,4,5,6,7,{8}18,27,{16}3h[8:1]/6h[8:1],,,4h[8:1]/5h[8:1],,,
{8}2/7b,2b/7,8,1,2,{16}8h[16:3],,,7h[16:3],,,6,,2h[16:3],,,3h[16:3],,,4,,
{8}4,6-1[8:1],2-5[8:1],6b,2b,,{16}8,17,26,35,{2}4w8[8:1],
{4}1b/7,2b/6,{16}3b/5-1[8:1],,4,4,{8}5,,28,3,45,6,71,{16}3,4,3,,25,,1,,6,5,6,,47,,
{8}8,2,4,6,28,3,45,6,71,{16}3,4,3,,25,,1,,6,5,6,,47,,8,,3,24,,6,57,,
{8}1,1,28,28,3^6[8:1]/7,37,,,{16}8-4[8:1]/4,73,62,51,{4},{24}6^3[8:1],7,8,1,2,3,{4},
{16}1,8,2,7,1,8,3,6,{32}1,2,3,4,5,6,7,8,1,2,3,4,5,6,7,8,
{4}1^4[8:1],1/8^5[8:1],{16}18,,3,3,{4}2-6[8:1]/4b,2b/6,
{8}8,8,17,6,45,3,{16}28,7,6,5,2,3,4,5,{8}7p5[4:1],8,1b,,3,2h[8:1]/4h[8:1],,7h[8:1]/5h[8:1],,
{16}1,1,1,,28,,17,2,3,4,7,6,5,4,{4}3/2b-7[8:1],2/6b-3[8:1],2b/6,
{8}1,1,28,3,45,6,{16}71,2,3,4,5,6,7,8,{8}1-5[8:1]/5,15,6b<4[8:3],{2},
{16}1h[8:1],,,2h[8:1]/8h[8:1],,,{4}3-1[8:1]/7-1[8:1],3b-5[8:1]/7b-5[8:1],3b/7b-3[8:1],7b/1bw5[8:1],1b,
{16}37,,3,4,2,,6,5,7,,{4}8/2-4[8:1],2/1-5[8:1],1/8-4[8:1],8/7-5[8:1],17,{8}34,25,
{16}6,5,7,,3,4,2,,{4}1/7-5[8:1],7/8-4[8:1],8/1-5[8:1],1/2-4[8:1],{16}82,,8,7,6,5,
{8}3b/4b,2,2,2,18,7,7,7,56,4,35,2,18,7,64,3,{16}2,1,2,1,4,5,4,5,8,7,8,7,1,8,2,7,
{24}3,4,5,6,7,8,{32}1,2,3,4,5,6,7,8,{48}1,2,3,4,5,6,7,8,1,2,3,4,{4}5w1[8:1],{2}5b,3,4,5,6,{1},
{8},5,3,4,2-4[8:1],,2,,6,4,5,3^6[4:1],,3,,,,7,5,6,4,,{16}8,8,8,,{8}3,5,4,6^3[4:1],,6,,,,
2,4,3,5,,46,,57,,8,8,,35,,24,,1,1,8,,45,45,,6,5,4,36,,{16}1,8,1,8,1,8,1,8,2,3,4,5,6,7,
{4}18,,2h[4:1],4,1h[4:1],4,8h[4:1],5,7h[4:1],5,{8}6,4,5,{4}3^6[4:1],6^1[4:1],1^4[4:1],4,
{16}7,7,{8}5,,45,,{16}2,,,3,,,4,,7,,,6,,,5,,,4,,,{8}3,3,6,6,4,4,{16}5h[16:3],,,4h[16:3],,,5,,
{2}2^4[8:1]/7^5[8:1],{32}18,2,3,4,5,6,7,8,1,2,3,4,5,6,7,8,
{8}1h[4:3],,3,5,7^5[8:1],,7>5[8:5],,4h[8:7],,,,,,,6,8h[4:3]/2b,,6,4,2^4[8:1],,2,,
{24}25,1,8,7,6,5,{8}4,4,{16}2h[8:1]/4h[8:1],,,5h[8:1]/7h[8:1],,,{8}18,1b/8b,,
45,45,2-6[8:1]/7,,6-2[8:1],,8,,8,17,26,,,45,6,5,3,4,
7-3[8:1],,3-7[8:1],,1h[8:3],,,8,{4}1^4[8:1]/8^5[8:1],1b/8b,
{8}2/7h[8:1],2,2/8h[8:1],2,2/1h[8:1],2,2/3h[8:1],2,2/4h[8:1],2,2/5h[8:1],2,2-6[8:1]/6h[8:1],2,8b,,
7/1h[8:1],7,7/8h[8:1],7,7/6h[8:1],7,7/5h[8:1],7,7/4h[8:1],7,7/3h[8:1],7,{24}7/2h[8:1],6,5,{8}4-8[8:1],,3b,
1,1,28,28,3-8[8:1]/7-5[8:1],37,,,6-1[8:1]/2-4[8:1],62,,,{24}5w1[8:1],46,37,{8}28,,,
{16}3,7,3,7,4>5[8:3],6,4,6,{4}4b,,1b-7[12:1],2b-6[8:1],3b-5[12:1],8b,
{16}26,,7,8,7,,2,1,2,,7,8,6,,2,1,3,,5,4,5^8[12:1],,{24}2b,3,4,5,,,{16},,
6,5,7,5,6,,2,4,3,,8,5,6,,1,4,3,,7,8,7,,2,1,2,,6,5,6,,57,,8-4[8:1],4,6,2,{8}8,,
2-6[8:1]/7,8,1-5[8:1]/2,,1/8-4[8:1],,8/7-3[8:1],,1V35[4:1]*V75[4:1],1,,,,
37,18,2,1-3[8:1]/8-4[8:1],7,8-6[8:1]/1-5[8:1],,1-3[8:1]/8-4[8:1],,18,,5,46,{2}2^5[8:1]/8^5[8:1],
{32}1-5[8:1],2,3,4,5,6,7,8,{4}1b,{16}46,,2,1,2,,7,8,7,,4,5,4^1[12:1],,{24}7b,6,5,4,,,{16},,
3,4,2,4,3,,7,5,6,,1,4,3,,8,5,6,,2,1,2,,7,8,7,,3,4,3,,42,,1-5[8:1],5,3,7,{8}1b,,
7-5[8:1],7,8-4[8:1],8,1-5[8:1],1,2b-4[8:1],2,1-5[8:1],1,8-4[8:1],8,7-3[8:1],7,1b,,
1-4[8:1]/8-5[8:1],27,{4}1b^6[8:1]/8b^3[8:1],1b-5[8:1]/8b-4[8:1],1b/8b,
{8}27,36,4^1[8:1]/5^8[8:1],,4b/5b,,
{16}27,,3,4,2,,6,5,7,,3,4,1,,6,5,8,,2,1,2^5[12:1],,{24}5b,6,7,{8}8,
1^6[8:1],2q4[4:1],1,2,,{16}5,5,5,,{8}4^6[8:1],6^8[8:1],8^2[8:1],2^4[8:1],,5w1[8:1],,,,
46,3/7-3[8:1],28,{4}1-5[8:1],1/8-4[8:1],8/2-6[8:1],{8}7,7^2[8:1],,7/3^6[8:1],,3/8-4[8:1],,
3,2,1-5[8:1]/5,,4,8,,7^4[8:1],8,7,2,3b/4b,5b/6b,2b/4b,5b/7b,1b/3b,6b/8b,2b/7b,,
{24}1-5[8:1]/8-4[8:1],27,36,45,,,{8}1b/8b,,3/7h[8:3],,,5,2h[4:1]/8-4[8:1],,8,,
{16}1h[8:1]/3h[8:1],,,8h[8:1]/6h[8:1],,,{8}2b/7,2/7b,,1-5[8:1]/5,,8,7,6,34,25,
{24}1b,2,3,4,,,8b,7,6,{16}4h[8:1]/5h[8:1],,,1h[8:1]/8h[8:1],,,2b/7b,,2b/7b,,
3,4,3,,2b/5b,,1,,6,5,6,,4b/7b,,{8}8,7b/1b,3,2b/4b,6,7b/5b,1,2b/8b,
7b-3[8:1],7,7/1b-5[8:1],1,1/8b-4[8:1],8,8/2b-6[8:1],2,2/7b-3[8:1],7,7/1b,1,
{32}1b,2,3,4,5,6,7,8,{48}1,2,3,4,5,6,7,8,1,2,3,4,{4}5b<4[4:2],,,{1}8b,,,,E
Re:MASTER
- 追加しました。修正等ありましたらよろしくお願いします。 -- けもがみ (2023-01-28 02:01:54)
- EXPERT譜面を追加しました。修正等ありましたらよろしくお願いします。 -- Sugar (2026-03-02 22:54:11)
最終更新:2026年10月27日 15:37