BASIC
ADVANCED
EXPERT
MASTER
(170)
{1}5w1[2:1],
{8}3hbx[4:1]/5hbx[4:1],,,6hbx[4:1]/4hbx[4:1],,,57,,6h[4:1]/4h[4:1],,,3h[8:1]/5h[4:1],,2,24,,
3h[4:1]/5h[4:1],,,6h[4:1]/4h[4:1],,,57,,6h[4:1]/4h[4:1],,,3h[8:1]/5h[4:1],,2,24,,
{16}3bx/4bx,,,5bx/6bx,,,{4}2hbx[4:1]/7hbx[4:1],{16},,36,,6,5,
{8}6h[4:1],,4,5h[4:1]/3h[8:1],,2,24,,3h[4:1]/5h[4:1],,,6h[4:1]/4h[4:1],,,57,,
4h[4:1]/6h[4:1],,,3h[8:1]/5s1[4:1],,2,2,,8x^5[8:1],,3,2^5[8:1],,7,8-4[8:1],,1^4[8:1],,6,7^4[8:1],,
2,1,{24}1,2,3,{8}4x^1[8:1]/5x,,7,6^1[8:1],,3,4-8[8:1],,5^8[8:1],,2,3^8[8:1],,6,5,{24}5,6,7,
{16}1x-5[8:1]/8x,,,2,1,,3,,5x-1[8:1]/4x,,,6,5,,7,,{8}1x/2x,3/4,5x/6x,78,{16}1x,8,1,8,
{32}1,2,3,4,8,7,6,5-8[32:5],{4}1bx,4-1[8:1],7-2[8:1],6-3[8:1],7^1-5-3[2:1],4,{8}3,2,1b,,
{16}6x,5,6,5,6,,45,,3,4,3,4,3,,45,,6,5,6,5,6,,35,,2/1h[16:3],,,8h[16:3],,,7,,
6,5,6,5,6,,45,,3,4,3,4,3,,45,,6,5,6,5,6,,35,,13,,,27,,,68,,
2x,1,2,1,2,,81,,7,8,7,8,7,,81,,2,1,2,1,2,,71,,6/5h[16:3],,,4h[16:3],,,3,,{8}12,18,78,,
{16}2,1,3,1,2,,18,,7,8,6,8,7,,28,,{2}3q8[8:1]/4^7[8:1],{16}2x,1,,4,5,,56,,7,8,,5,4,,43,,
2x,1,,4,5,,56,,7h[16:3],,,8h[16:3],,,1,,2-6[8:1],,2,,2b/1b,,,,7,8,,5,4,,34,,2x,1,,4,5,,56,,
6,4,6,3,5,3,6,,{8}1-4[8:1]/8-5[8:1],18,1b/8b,,2x/7x,{16}6-1[8:1],5,,5,6,,2x,,3-8[8:1],4,,4,3,,7x,,
6-1[8:1],5,,5,6,,{8}3-7[8:1],7-3[8:1],3,,8,{16}2,1,,6,5,,47,,7,8,,3,4,,{32}5x,6x,7x,8x,1x,2x,3x,4x,
{4}5bx,{1}5hb[4:7]/7hb[4:7],,2h[4:3]/4h[4:3],{8}17,7,28,2,{16}1-4[8:1],8,1,8,{4}1b,
{16}6x<2[8:1],5,,3,,,{8}4V62[4:1],,1,8,7,{16}3>7[8:1],4,,6,,,5V37[4:1],,,,8-2[16:1],,,8x,,,
{16}6<2[8:1],5,,3,,,{8}4V62[4:1],,1,8,7,{16}3>7[8:1],4,,6,,,5V37[4:1],,,,8-2[16:1],,,8x,,,
{2}6bq2[8:1],{16}3,,3,4,,4,5,,56,,6,7,,7,8,,81,,1,2,,2,3,,{2}3-8[8:1]/4-7[8:1],
{8}65,45,{16}3,4,3,4,,1,8,,6,5,{8}6,7v1[8:1],5,4,2,{16}2x/8x,7,6,5,
3/4-8[16:1],,,4/2-6[16:1],,,2/7-2[16:1],,,57,,,4x,3,2,1,
7/8-4[16:1],,,8/6-2[16:1],,,6/3-6[16:1],,,13,,,8x,7,6,5,
3/4-8[16:1],,,4/2-6[16:1],,,2/7-2[16:1],,,57,,,4x,3,2,1,
7/8-4[16:1],,,8/6-2[16:1],,,6/3-6[16:1],,,13,,,{8}5x/7x,6,4x/2x,3,1b/8b,,
{16}6x,4,5,3,4,2,3h[8:1],,2x,4,3,5,4,6,5h[8:1],,7h[8:1],,3,,{2}4-1[8:1]/6-1[8:1],
{16}3x/7x,,6,56,,3,34,,7,75,,2,24,,18,,{32}7x,6,5,4,3,2,1,8,7x,6,5,4,3,2,1,8,{1}7bx/3bx,,,
{16}56,,E5,E7,B4,B7,B3,B8,{4}Ch[4:1],,B5/A5,B6/A6,B7/A7,B8/A8,B1/A1,B2/A2,B3/A3,B4/A4,
{8}56,56,78,78,{16}1,8,1,8,1,8,1,8,{32}1,2,3,4,5,6,7,8,1,2,3,4,5,6,7,8,1,2,3,4,5,6,7,8,
{4}1bx-5[8:7]/5bx,7,2,{8}6-8[8:1],7,6b,,
{4}2x-6[8:1]/8x,2/8-4[8:1],{16}8/5^2[8:1],,,5^8[8:1],,,5,,{4}1-5[8:1],1/7-3[8:1],7/4^1[8:1]*^7[8:1],4,
{4}3x/7x-3[8:1],71,{16}24,24,,4^1[8:1]/5,,,{24}8,7,6,5,,,5,,,
{4}4b-7[8:1]/6b,3/4-1[8:1],4/8-5[8:1],7/8-3[8:1],28,{16}45,,7,78,,2,12,,{12}3-7[8:1]/8-4[8:1],38,38,38,,,
{6}5h[12:1]/6h[12:1],4h[12:1]/5h[12:1],3h[12:1]/4h[12:1],{4}2w6[8:3],,,4b/8b,
{16}1x/2x,,3-7[8:1],4,,6,7,8,1,,6-2[8:1],5,,3,2,1,8,,3,5,4^1[8:1],,36,,{24}45,6,7,8,,,
{8}2x/8x,37,46,{16}6-2[8:1],5,,3,2,1,8,,3-7[8:1],4,,6,7,8,1,,6,4,5^8[8:1],,63,,{24}54,3,2,1,,,
{16}7x,8,7,8,{8}7b,5b/6b,4b/7b,,{16}12,,3-7[8:1],4,,6,7,8,1,,6,4,5^8[8:1],,63,,{24}54,3,2,1,,,
{8}7x/1x,62,53,{16}3,4,,4,1b,,78,,6,5,,5,8b,,12,,3,24,,6,57,,{32}1x/8x,2,3,4,5,6,7,8,
{8}1x/5x,,38,{24}1b/2b,38,47,{4}56,7^4b[8:1]/8^3b[8:1],,{8}5b/6b,1b/8b,3b/4b,,
{16}47,,,2,25,,16,,7/8-4[8:1],78,,18,{8}18,,2,18,67,45,36,
{16}2-5[8:1],1,,1,{24}2,8,7,{16}6,,3,4,2,5,1,,2x/7x,,6-2[8:1],5,,3,2,1,8-4[8:1],,{24}5,6,7,{4}81,
{16}2x/5x,,3-7[8:1],4,,6,7,8,1-5[8:1],,{24}4,3,2,{4}18,{16}4x/7x,,6-2[8:1],5,,3,2,1,8x,,8-4[8:1],7,,
4,5,6,7x-3[8:1],,3,3,,2,2,,1x/5x,26,37,48,{8}1-5[8:1]/5-1[8:1],37,1b/5b,,48,{1}2b-7^2[8:19]/6b-3^6[8:19],,,,E
Re:MASTER
- 追加しました。修正等ありましたらよろしくお願いします。 -- けもがみ (2023-01-29 05:47:13)
最終更新:2026年10月23日 09:21