BASIC
ADVANCED
EXPERT
(175)
{1}1x>6[4:4], {4},, {16}E7,B6,B5,E5,Ch[8:1],,,,
{1}, {8},,,,E7,E6,E4,E3,
{1}8x<3[4:4], {4},, {16}E3,B3,B4,E5,Ch[8:1],,,,
{1}, {8},,,,E7/B7/E3/B3,Ch[8:1],,,
{4}8x/1x,1,24,2, {8}34,,3,,5,4,6,6,
{4}75,6,54,3, {8}24,,81,,2,3,6,7,
{4}1x/8x,8,75,7, {8}65,,6,,4,5,3,3,
{4}2-6[8:1]/4,,8<5[8:1],1>4[8:1], Cf,,,,
{16}75,,6h[16:3],,,5h[16:3],,, 4h[16:3],,,3h[16:3],,,2,, {4}23,45,67,81,
{16}24,,3h[16:3],,,4h[16:3],,, 5h[16:3],,,6h[16:3],,,7,, {4}7-3[8:1],,8-5[8:1]/1-4[8:1],,
{4}6x/3x,18, {16}2h[16:3],,,3h[16:3],,,4,, {8}4,5,65,, 5,4,34,,
{4}5/2-6[8:1],, {16}7h[16:3],,,6h[16:3],,,5<4[16:7],, {4}5,, {16}, ,,6x/7x,,,2x-6[8:1]/3x,,
{4},8b, {16}7h[16:3]/1,,,5h[16:3],,,4,, {8}4,2,4,3, {16}8h[16:3],,,6h[16:3],,,5,,
{8}5,3,4,5, {16}2h[16:3],,,4h[16:3],,,5,, {8}5,7,5,6, {16}1h[16:3],,,3h[16:3],,,4,,
{4}4-1[8:1],5,6-3[8:1],1, 2-7[8:1],6,5-8[8:1],4,
{8}2,2,4,4,5,5,7,7, {16}1,8,1,8,2,7,2,7,3,6,3,6,4x>5[4:27]/5x,,,,
{1}Cf, ,
{1}, Chf[8:9],
{1}, ,
{1}, E7/B7/E3/B3/Chf[1:1],
{1}, 2h[1:1],
{1}4h[1:1], {2}5h[2:1],7h[2:1],
{4}5,5,5,46, 3,3,3,42,
{4}6,6,6,75, 8qq5[4:2]/4qq1[4:2],,,,
{16}2x,,2xh[16:3],,,1,,, 3h[16:3],,,4,,,51,, 7x,,7xh[16:3],,,8,,, 6h[16:3],,,5,,,73,,
{16}1x,,1xh[16:3],,,8,,, 6h[16:3],,,5,,,84,, 2x,,2xh[16:3],,,1,,, 3h[16:3],,,4,,,62,,
{16}7x,,7xh[16:3],,,8,,, 6h[16:3],,,5,,,84,, 2x,,2xh[16:3],,,1,,, 3h[16:3],,,4,,,62,,
{16}8x,,8xh[16:3],,,1,,, 3h[16:3],,,4,,,6,5, ,,7h[16:2]/8xh[16:2],,,1xh[16:2]/2h[16:2],,, 4h[16:2]/3xh[16:2],,,6xh[16:2]/5h[16:2],,,8x/4x,,
{8}8bx/4bx,,7,,6,,6,, 5,,5,,4,5,45,,
{8}7x/3x,,2,,3,,3,, 4,,4,,5,5,4,4,
{8}6x,6,6h[8:1],,5x,5,5h[8:1],, 4x,4,4h[8:1],,3x,3,3h[8:1],,
{8}2x,2,4,4,5,5,7,7, 8x/1x,,5-7[8:1]/4-2[8:1],54,,,8b-4[8:1]/1b-5[8:1],,
{8},,72,,3,4,3,2, 3,4,3,2,3,4,3-6[8:1]b,2,
{8},,7-2[8:1],7,4,,6-3[8:1],6, 1,,7-3[8:1],7,2,,8x-4[8:1]/1x-5[8:1],,
{8},,72,,6,5,3,4, 7,5,2,4,6-3[8:1],3,,,
{8}8b/1b,7b/2b,6b/3b,,1h[8:1]/2h[8:1],,7h[8:1]/8h[8:1],, 2-4[8:1],,7-5[8:1],,1>4[8:1],,8<5[8:1],,
{8}1b,,27,,6,5,6,7, 6,5,6,7,6,5,6-3[8:1]b,7,
{8},,2-7[8:1],2,5,,3-6[8:1],3, 8,,2-6[8:1],2,7,,8x-4[8:1]/1x-5[8:1],,
{8},,27,,3,4,6,5, 2,4,7,5,1,4,8,5,
{16},,76,,,54,,, 32,,,18,,,5h[16:1]/4h[16:1],, ,,,,,,,, 1-5[8:1],8,1,, ,,,,
{16}6x,,7x/5x,,3,4,,4, 2,,2,8,,8,1,, 3x,,2x/4x,,6,5,,5, 7,,7,1,,1,8,,
{16}7x,,7xh[8:1],,5,6,,4,5,,3,4,,2,3,, 1x,,1xh[8:1],,3,2,,4,3,,5,4,,6,5,,
{16}8x,,1x/7x,,2,4,,4, 3,,3,8,,8,1,, 1x,,8x/2x,,7,5,,5, 6,,6,1,,1,8,,
{16}7x,,7xh[8:1],,5,6,,4,5,,3,4,,2,3,, 1x,,1xh[8:1],,3,2,,4,3,,5,4,,6,5,,
{16}7x,,7xh[8:1],,5,6,,3,4,,2,1,,7,8,, 2x,,2xh[8:1],,4,3,,6,5,,7,8,,2,1,,
{16}7x,,7xh[8:1],,5,6,,3,4,,2,1,,7,8,, 2x,,2xh[8:1],,4,3,,6,5,,7,8,,2,1,,
{4}8-4[8:1],1-3[8:1],7-5[8:1],4, {16}2x,3x,4x,5x,8x,7x,6x,5x, 1x,2x,3x,4x,7x,6x,5x,4x,
{16},,2h[16:3],,,4h[16:3],,,5h[16:3],,,7h[16:3],,,1,8, ,,4h[16:2]/3h[16:2],,,8h[16:2]/1h[16:2],,, 6h[16:2]/5h[16:2],,,2h[16:2]/3h[16:2],,,7-3[8:1]/8,,
{4},1b,2,3, {16}4,,,,5,,,,3,4,3,4,2,,2,,
{4}7,6,5,4, {8}3,,2,,18,7,18,2,
{4}8b/1b,2,,4, {16},,,,6,,,,4,5,4,5,3,,3,,
{4},54, {24}E8,B7,B6,E6,,, E2,B2,B3,E4,,, {8},,18,,75,64,53,42,
{1}B1/Chf[8:1]/B5,,,,E
MASTER
(175)
{8}1x/8x,1bx-4[8:5]/8bx-5[8:5],,,{1},
{16}4,5,4,5,4,,{4}3h[4:1]/5h[2:1],,,{8}B3,B5,,{1}Ch[2:1],
{8}1/8,1bx-4[8:5]/8bx-5[8:5],,,{1},
{16}5,4,5,4,5,,{4}4h[4:1]/6h[2:1],,,{8}B4,B6,,
{2}3h[2:1]/7,{8}8v3[8:1],8,3x,2,{4}1b/4x,14,24,24,34,34,
{16}5,4,5,4,{8}5,5,{4}46,46,47,4/7^2[4:3],4,4,4,4,58,58,57,56,
{8}4,4,5,5,3,3,6,6,{16}4,5,4,5,4,5,4,5,3,6,3,6,2,7,2,7,
{8}1bhx[4:2],,8,8,{2}8-4[8:1],
{8}2b/5b,25,{16}3,4,3,,2,,2,4,,4,5,,56,,56,,7,,7,5,,5,6,,{4}4h[4:1]/7,
{16}8,,8,,6,5,6,,7,,7,5,,5,4,,4x/3x,,6,5,7,,3,4,2,,{8}17,2bx/6bx,,
1,1,{16}3,4,3,,2,,2,4,,4,5,,56,,56,,7,,7,5,,5,4,,34,,,,
3,4,3,,25,,1,,1,,1,8,2<4[4:2],,6,,{2}6hx[4:2],{16},,,4bx,{8}5bxw1[8:1],3x/7x,,,
2bx/8bx,,{16}25,,3,4,,4,5,,46,,46,,7,8,7,,6,,6,5,,5,4,,35,,35,,
2,1,2,,3,,3,4,,4,5,,46,,46,,7,8,7,,6,,6,5,,5,4,,
{8}3bx-8[8:1]/5bx,3,6-1[8:1],6,3-8[8:1],3,7-4[8:1],7,2-6[8:1],2,1-5[8:1],1,8-4[8:1],8,6,6,
3bx/5bx,35,2,2,1bx/5bx,1/5,6,6,47,3,46,7,18,18,{16}1-5[8:1],8,2,7,
{2}1bx>8[4:11],,,Ch[4:1],,,1h[1:1],,8<1[4:11],,,Ch[4:1],,,8hx[4:3],,
{8}17,1h[8:7]/7,,,{16}5,,,4,,,6,,{2}6h[1:1],{16}4,,,5,,,3,,{2}3h[1:1],{16}5,,,4,,,5,,
{2}5h[2:1],3^5[8:1],{4}6,56,67,78,81,12,23,34,{8}5,5,4,4,36,36,2V48[2:1]/7V51[2:1],18,{4},,,
2x/7x,{16}4bx,5,3h[8:1],,1,2h[8:1],,8,1h[8:1],,7,8h[8:1],,{16}7,8,6,1,
5,2h[8:1],,4,3h[8:1],,5,4h[8:1],,6,5h[8:1],,7,{8}5,46,35,{16}2,1,3,8,
4h[8:1],,7,5,,5,6,,37,,46,,3,4,2,5,1h[8:1],,8,1,,1,8h[8:1],,2bx,1,3,8,4,
7h[8:1],,5,6h[8:1],,4,5h[8:1],,3,4,2,5,1,6,8,7,1h[8:1],,4,3h[8:1],,6,5h[8:1],,7,5,,
8,4,8,4,7,5,6,4,5,3,4,3,5,2,6,1-5[16:1],,,7-4[16:1],,,3-8[16:1],,,5,,,1,,,{8}26,
{4}2bh[4:5]/6b,5,5,4,4,5,{16}3,4,3,4,3,,3,,{4}6bh[4:6]/4,4,5,5,4,4,
{8}5,5,6,6,4x/6,3,3,3,4/6x,7,7,7,4/8x,3,3,3,2x/5,6,6,6,5/7x,5,6x/4,6,3x/5,3,2x/4,5,
5h[8:5]/3,,4,4,4h[8:1],{24},36,27,{4}1s5b[16:1]/8z4b[16:1],1bx/8bx,
{16}3bx,7,5,7,1,7,5,7,3,7,5,7,2,6,4,6,8,6,4,6,2,6,4,6,{4}8x-3[8:1]*-5[8:1],8bx,
{8}2-4[8:1]/6-8[8:1],1,26,,2-5[8:1]/6-1[8:1],1,26,,2-6[8:1]/6,1,2bx/6bx,
8,8^3[8:1]*^5[8:1],,8bx,,26,,7h[8:1]/5,4,3h[8:1]/5,6,5/7-3[8:1],,3-7[8:1],
2,1,1,2x/8x,,1bx-5b[8:1]/7bx-3b[8:1],3bx/5bx,1bx/7bx,,2h[8:1]/6h[8:1],,
3h[8:1]/7h[8:1],,{12}6,4,5,2,4,3,7,5,6,{2}8w4b[8:1],
{16}6bx,2,4,2,8,2,4,2,6,2,4,2,7,3,5,3,1,3,5,3,7,3,5,3,{4}1x-6[8:1]*-4[8:1],1bx,
{8}7-5[8:1]/3-1[8:1],8,73,,7-4[8:1]/3-8[8:1],8,73,,7-3[8:1]/3,8,7bx/3bx,
1,1^6[8:1]*^4[8:1],,1bx,,37,,{16}6h[16:3],,,7h[16:3],,,8,,8,,1,,25,,25,,
3,,3,4,,6,5,,46,,7,,83,,83,,2,,2,1,,7,8,,{2}1/6h[2:1],{16}8x-4[8:1],1x,2x,3x,{4}4bx/8bx,
{16}35,,26,,7,8,6,8,7h[8:1],,2,1,3,8,4,7,5,6,5,,3,4,2,4,3h[8:1],,6,5,7,4,8,3,1,2,1,,
7,8,6,8,7h[8:1],,5,6,4,5,3,4,2,5,2h[8:1],,1,2,8,3,7h[8:1],,8,7,8,,16,,
3b,4,2,6,5,7,3b,4,2,6,5,7,1b,8,3,6,2b,1,3,7,8,6,2b,1,3,7,8,6,4b,5,3,6,
2b,1,3,6,5,7,2b,1,3,6,5,7,1b,8,2,7,3b,4,2,7,8,6,3b,4,2,8,1,8,1,,28,,
1b-5[8:1]/7b,,7,,1-3[8:1],8,,8,1-5[8:1],,6,6,1-3[8:1],,7,,1-5[8:1]/7,,7,,1-3[8:1],8,,8,1,,6,6,1,,28,,
7b-3[8:1]/1b,,1,,7-5[8:1],2,,2,7-3[8:1],,3,3,7-5[8:1],,2,,7-3[8:1]/1,,1,,7-5[8:1],2,,2,7,,3,3,8,,17,,
{4}1b/7b,2h[8:1]/6h[8:1],3h[8:1]/5h[8:1],4h[8:1],{16}35,6,7,8,2,3,4,5,8,7,6,5,2,1,2,,38,,47,,
6,5,6,,45,,3,4,3,,1-5[16:1]/5,,,,1b/7-3[16:1],,,7b/2-6[16:1],,,2b/8-4[16:1],,,8b/1w5[16:1],,,
{8}1b,,,A3/D4/B3/E4/B4/Cf/B5/B6/B7/E7/D7/A7,,
1-5[8:1],1,8,8,7-4[8:1],7,3,3,{16}2,1,2,1,{8}2,38,4-8[8:1],4,6,6,1-3[8:1],1,7,7,
4^1[8:1],4,8^5[8:1],8,3,3,24,15,{4}6h[4:1]/8,5h[4:1],4h[4:1],3h[4:1],2,18,
{16}2,1,2,1,2,1,2,1,{32}2b,3,4,5,{16}7,8,7,8,7,8,{32}7b,6,5,4,{16}2,1,{32}2b,3,4,5,
{16}7,8,7,8,6,1,5,2,4,3,6,5,7,2,1-4-8b[4:1]*-5-7[4:1],,{1}38,,,,E
Re:MASTER
- 追加しました。修正等ありましたらよろしくお願いします。 -- けもがみ (2023-01-29 10:17:37)
- added EXPERT -- cubruce1103 (2023-07-18 19:18:15)
最終更新:2026年04月11日 18:43