アットウィキロゴ

Rising on the horizon

アーティスト TAG

BPM BASIC ADVANCED EXPERT MASTER Re:MASTER
200 5 8 12+ 14 -

EXPERT MASTER Re:MASTER
譜面制作者 ロシェ@ペンギン 小鳥遊さん -

BASIC


ADVANCED


EXPERT

{4}34,,5h[2:2],, E2,E3,E4,,
{4}65,,4h[2:2],, E8,E7,E6,,
{4}34,,5h[2:2],, E2,E3,E4,,
{4}65,,4h[2:2],, Ch[2:1],,,,
{8}2,2,8,8,4,4,6,, 7-4[8:1]/6-4[8:1],,,,3-5[8:1]/2-5[8:1],,,,
{8}7,7,1,1,5,5,3,, 3-5[8:1]/2-5[8:1],,,,7-4[8:1]/6-4[8:1],,,,
{8}3,3,4,4,5,5,54,, 6,6,5,5,4,4,54,,
{8}4x/2x,42,,7x/5x,75,,8x/1x,81, 7x/2x,,,,{16}3,4,3,,5x/1x>6[2:3],,,,

{2}8b,, ,,
{2}E1,E8, E7,E6,
{2}E5/B5/B4,E7/E3, E1/E5,E8/B8/B7,
{1}E2/B1/B2, B7/B6/C/B2/B3,
{2}3<6[4:1],2q7[4:1], 1>4[4:1],8q5[4:1],
{2}7>2[4:1],6q3[4:1], 5<2[4:2],,
{4}56,56,78,78, 12,12,34,34,
{8}5,5,5,5,4,4,4,4, {16}5x/3x,,,5x/3x,,,5x/3x,, {2}5x-1[8:1]/3x-7[8:1],
{8}2x,2,2,2,1,1,1,1, 8,8,8,8,7,7,7,7,
{8}6,7,8,1,2,3,45,, 6h[8:3]/8h[8:3],,,,7x-3[8:1],,,,

{16}2xh[16:3],,,1,,,83,, {8}7,6,5,4, {16}3h[16:3],,,4,,,52,, {8}5h[4:1]/2h[4:1],,,,
{2}3<6[4:1],2q7[4:1], {4}1,8p6[4:1],,,
{16}4h[16:3],,,3h[16:3],,,2,, 5h[16:3],,,6h[16:3],,,7,, 3h[16:3],,,2h[16:3],,,1,, 6h[16:3],,,7h[16:3],,,8,,
{8}1,1,1,1, {16}7,8,7,8,7,8,7,, {8}6bx/1bx,6bx/1bx,6bx/1bx,6bx/1bx, ,54,7x/2x,,
{16}3h[16:3],,,4h[16:3],,,5,, {4}5-3[8:1],7x, {16}6h[16:3],,,5h[16:3],,,4,, {4}4-7[8:1],2x,
{16}3h[16:3],,,4h[16:3],,,5,, {4}5-1[8:1],8x, {16}7h[16:3],,,6h[16:3],,,5,, {4}5-8[8:1]/4-1[8:1],,
{16}3h[16:2],,,4h[16:2]/2h[16:2],,,51,, {4}5/1-5[8:1],, {16}6h[16:2],,,5h[16:2]/7h[16:2],,,48,, {4}4/8-4[8:1],,
{8}3x,3x,3b/2b,,6x,6x,6b/7b,, {16}1x/3x,,,5x/7x,,,7x/2x,, ,8x,1x,,72,,72,,

{4}7/2h[1:1],,C,, 7h[1:1],E2,B2,,
{4}6/3h[1:1],,C,, 6h[1:1],B2,B3,,
{8}4,4,5,,B2,,5,5, 4,,B7,,B6,,,,
{8}3,3,4,,E3,,6,6, 7xh[4:1],,5xh[4:1],,4xh[4:1],,2x,,
{8}1,1,2,2,83,,1,1, 2,2,83,,B2,C,B6,,
{8}8,8,7,7,16,,8,8, 7,7,16,,B7,C,B3,,
{4}1/2-5[8:1],8-4[8:1],1-5[8:1],7-3[8:1], 8-2[8:1],6-4[8:1],7-3[8:1],8,
{8}1x/2x,12,,6x/5x,65,,4x/3x,43, 2x,2,1x,1,8x,8,7x,,
{2}6xpp3[8:5]/1hx[2:3],, B5/B4,B8/B1,

{2}B7/B6/Cf/B2/B3 ,, , {8},,,65,
{8}65,,,43,43,,,5, 64,,53,,8-4[8:1]/2h[4:1],,,,
{16}5h[16:3],,,6h[16:3],,,7,, 4h[16:3],,,3h[16:3],,,2,, 6h[16:3],,,7h[16:3],,,8,, 3h[16:3],,,2h[16:3],,,1,,
{8}E1,E8,E7,E6,E5,E4,E3,,
{8}8x/1x,81,,75,,43,52,, 1x/8x,18,,24,,56,47,,
{8}1x/3x,13,,76,,78,61,, 6x/8x,68,,8x-4[8:1]b/1x-7[8:1]b, ,,,,

{4}8x-5[8:1]b*-3[8:1]b,,B6/C/B2,8x<4v6[2:1]b, 1hx[2:1],,,,
{16}5,,5,4,,4,6,, {4}7-4[8:1]/5,2, {16}3,,3,4,,4,2,, {4}5/1-5[8:1],,
{16}6,,6,5,,5,7,, {8}81,81,72,, {16}3,,3,4,,4,2,, {8}81,72,63,,
{8}2-5[8:1]/1-5[8:1],21,,,8-4[8:1]/7-4[8:1],87,,, {16}7x/6x,,,8x/3x,,,5xV38[8:2]/1xh[8:3],, {4},,
{16}1x,8x,1x,8x,1x,8x,1x,8x, {4}1x-5[8:1],5b,

{16}7x,,7,5,,5,8,, 1,,2,,3,,4,, 7,,7,5,,5,8-5[8:1],, {4}4-1[8:1],,
{16}7x,,7,5,,5,8,, 1,,2,,3,,4,, 7,,7,5,,5,8,, 7,8,7,8,7,,,,
{8}6x/5x,4,3,2,1x/8x,7,6,5, 4x/3x,2,1,8,7x/6x,5,4,3,
{8}8x/1x,81,,65,6-2[8:1]/5-2[8:1],,,, 8x/3x,83,,65,,5x/4x,6x/3x,7x/2x,
{16}2x,1,2,1,2,,7x,8, 7,8,7,,1x,8,1,8,
{1}7b/2b,,,,E

MASTER

(200)
{8}5/6h[4:6],,,5,5,,4,,4,4,,5,5,,45,,4/3h[4:6],,,4,4,,5,,5,5,,4,4,,54,,
5/6h[4:6],,,5,5,,4,,4,4,,5,5,,45,,4/3h[4:4],,,4,4,,5,,{1}5w1[4:2],{8}3b/7b,,
56,5,5-1[8:1]/6,5,56,,26,2,26,2,26,,36,4,56,,64,4,6/4-1[8:1],4,64,,
68,8,68,8,68,{16}1h,5h,1h,5h,1h,5h,{8}2,,43,4,4-8[8:1]/3,4,43,,13,1,13,1,13,4,5,6,
5x/7x,58,,4x/2x,41,,5x/7x,58,{2}1h[32:15]/5h[32:15],{32}A4/A8,D4/D8,A3/A7,D3/D7,A2/A6,,,,
{4}1bx/5bx,{1}3x/7x,4h[1:1],{2}5h[2:1],6h[2:1],7h[2:1],6h[2:1],5h[2:1],4h[2:1],3h[2:1],2h[2:1],
{1}1^4[2:1]*^6[2:1],5qq3[2:1]*pp7[2:1],
{4}E4/6h[4:3],B3,B2,E2,E4/5h[4:3],B3,B2,E2,E6/4h[4:3],B6,B7,E8,E6/3h[4:3],B6,B7,E8,
E4/5,B3/5,B2/6,E2/6,E6/4,B6/4,B7/3,E8/3,E4/5,E2/6,E6/4,E8/3,
{16}4x/6x,,,3x/4x,,,5x/6x,,{2}7b/C/B2/B3,
{8}56,6,56,,87,7,87,,43,3,43,,12,2,12,,{16}7x,8,6,1,5,2,4,3,6x,5,7,4,8,3,1,2^5[16:5],
{2}1hb[8:5],{16},,6,7,8,1,2,3,

4b/5b,,7,8,6,8,7,,15,,,2,2,,4,,35,,,6,5-2[8:1],,7,,58,,,,1b/6b,,7,8,7-4[8:1],,,,
71,,2,,3-8[8:1],,,4,3,,5,,8x,6,1,7,2,8,3,1,2,4,3,5,4,6,5,7,
6x-2[8:1]/8x,,,8,6,,8,,7x/1x-5[8:1],,,7,1,,7,,3x/4x-8[8:1],,,3,4,,3,,1x/7x-3[8:1],,,1,7,,1,,
{8}24,35,46,{16}7,8,7,,,12,,,45,,{8}3b/6x,2b/5x,1b/4x,8hb[4:1]/3x,,{16}2,1,8,7,6,5,
3b/4b,,2-6[8:1],1,2,1,2,,7h[4:1],,{48}D6,A5,D5,A4,D4,A3,{4}D3,{16}18,,
7,5,6^3[8:1],5,7,,26,,,,1b/8b,,,,12,,3,4,2,4,3,,6,5,6,5,7,8,7,,16,,,45,,,28,,1b,1b,1b,1b,1b,,,,
2x/8x-4[8:1],,,2,8,,2,,35,,4,,56,,7,,8x/1x-5[8:1],,,8,1,,8,,64,,3,,1b/2b,,,,
{8}8x,8x,{32}1b,2,3,4,7b,6,5,4,{8}1x,1x,{32}2b,3,4,5,8b,7,6,5,{16}2x/4x,,,1x/8x,,,5x/7x,,,3,4,,
{8}1x/8x,1x/8x,{1}2bq8>4[4:13]/7bp1<5[4:13],,,,

{4}3h[2:1],4,5,6h[2:1],5,4,35,46,3h[4:3],4,5,6,57,24,3b/6b,,
{16}3,4,3,,3,4,3,,3,4,3,,3,4,3,,3,1,3,,3,1,3,,3,1,3,,2b/8b,,,,
6,5,6,,6,5,6,,6,5,6,,6,5,6,,6,8,6,,6,8,6,,6,8,6,,7b/1b,,,,
2,4,2,,2,4,2,,2,1,2,,2,1,2,,2,3,2,,2,3,2,,2,1,2,,3b/8b,,,,
{8}4x/7x,4x/7x,6,5x/2x,5x/2x,3,{16}4xpp8[2:1]*qq8[2:1],5,4x,5,
{4}4x,,,2b/6b,Ch[4:3],,,,A8/D1/A1/B8/E1/B1/7h[4:1],,A4/D5/A5/B4/E5/B5/3h[4:1],8w4[8:1],
{64}8b,Cf,,,{16},,,{1},{4},,{16},,4x,5,4x,{4},{16},6x,5,6x,{4},{16},3x,4,{4}3x,25,{32}1,2,3,4,5,6,7,8,{4}1b/5b,
{16}2x-5[8:1],,,1,2,,8,,7x-4[8:1],,,8,7,,1,,2x^5[8:1],,,1,2,,8,,7x^4[8:1],,,8,7,,1,,
2x,,3,,4,,6,5,6h[16:3],,,7h[16:3],,,8,,{8}1x/2x,3/8-3[8:1],,4-8[8:1]/8b,,4b/5,6,7,
8x/7x,6/1-6[8:1],,5-1[8:1]/1b,,5b/4,3,2,1x/2x,8/3-8[8:1],,3b/5-1[8:1],,4/5b,3,2,
7x/8x,1-5[8:1]/6-1[8:1],,1b/6b,,{16}6,7,8,1,2,3,{2}4hx[4:1]/5hx[4:1],5hx[4:1]/6hx[4:1],
{4}3x/4x,4x-8[8:1]/5x-1[8:1],4x/5x,2b/7b,

{16}78,,6,5,7,5,6,,3,4,3,4,2,1,2,,38,,,45,,,17,,8b,8b,8b,8b,8b,,,,
4x/7,,6,5,6,,3,,12,,78,,56,,34,,1x/2,,7,8,7,,{8}1/6h[4:1],,5,4,3,
1x/2x,1x/2x,{32}8b,7,6,5,2b,3,4,5,{8}8x,8x,{32}7b,6,5,4,1b,2,3,4,
{16}5x/7x,,,1x/8x,,,{8}2x/4>5[16:5],,,,,{16}3,4,2,5,1,6,8,7,{4}1w5[8:1],1b`Cf,
{16}2x,1,2,1,3,8,3,8,1,6,1,6,2,5,2,5,3,4,3,6,5,6,1,8,1,,24,,5,3,6,4,
7x,8,7,8,6,1,6,1,8,3,8,3,7,4,7,4,6,5,6,3,4,3,8,1,7,8,7,8,1b/6b,,,,
2b/6x,37,48,51,6,7,8,1,2x/6b,37,48,51,6,7,8,1,2b/6x,37,48,51,6,7,8,1,2x/6b,37,48,51,6b/2b,,,,
{8}4x/7x,56,56,25,34,34,{16}5,4,6,3,{8}2x/7x,1-5[8:1]/8-2[8:1],,1b/8b,,
1x/4x,3x/8x,2x/7x,{16}1x,6,3,4,2b,,8x,3,6,5,7b,,1bw5b[8:1],1b,1b,1b,{64}1b,{1}Cf,,,,E

Re:MASTER


  • 追加しました。修正等ありましたらよろしくお願いします。 -- けもがみ (2023-01-30 03:24:41)
  • added EXPERT -- cubruce1103 (2023-07-21 20:59:04)
名前:
コメント:

タグ:

+ タグ編集
  • タグ:
最終更新:2026年10月21日 19:54