アットウィキロゴ

SUPER AMBULANCE

アーティスト AJURIKA

BPM BASIC ADVANCED EXPERT MASTER Re:MASTER
200 6 8+ 12 14 -

EXPERT MASTER Re:MASTER
譜面制作者 Jack 翠楼屋 vs あまくちジンジャー -

BASIC


ADVANCED


EXPERT


MASTER

(200)
{8}3h[4:1],,5,3h[4:1],,4,3qq3[2:1],,{4}4,,,{16}5,4,5,4,
{8}6h[4:1],,4,6h[4:1],,5,6p4[2:1],,{4}4x,,{8},3,3,,
4/6h[4:1],,4,5h[4:1]/7,,7,7,,5/3h[4:1],,5,4h[4:1]/2,,2,15,,
E7,E6,E4,E3,,B6,E5,B3,,1,,27,,36,3/6V41[4:3],,{1}4h[4:3],
{8}8h[4:1],,,1h[4:1]/7h[4:1],,,2V48[4:3]/6,,{1}4h[4:3],
{8}1h[4:1],,,8h[4:1]/2h[4:1],,,37,,46,5,4,37,6,5,42,2,4,5,2h[8:1]/6,,
{16}E5,B5,B6,E7,E3,B3,B4,E5,{8}7-4[8:1],,1,2-5[8:1],,5,6,7h[4:1],,8w4b[8:1],,{32}B8f,,C,B4,{4},

2x/6x,{8}3-5[8:1],,5,6,7-3[8:1],,1V38[4:1],,4,,6-3[8:1],,1,,12,,3/8-4[8:1],,4,3,
{4}2-5[8:1],7V51[4:1],4,2,48,3-5[8:1]/7-5[8:1],,3-7[8:1]/7,8-2[8:1],4-6[8:1],7-3[8:1],
2-8[8:1],6-4[8:1],{8}3,2,{4}1h[4:1],7h[4:1],5h[4:1],3>5[1:1],{1},
{8}4,,4,,4,,35,3,35,,5,,5,,{16}5,4,5,4,{8}6h[1:1],,5,,5,,4,4,3h[2:1],,6,,6,,
{16}5,4,5,4,{8}6,6,7,7,8,8,1,1,2,2,3,3,4,4,{16}4,5,4,5,
{6}3bx/6x,2bx/4x,1bx/8x,5bx/7x,4bx/5x,2x/4bx,1x/2bx,3x/5bx,4x/6bx,7bx/8bx,4bx/5bx,1bx/2bx,

{8}3h[8:1]/8,,3h[8:1]/8,7,3h[8:1]/6-1[8:1],,3h[8:1],,4h[8:1]/2^7[8:1],,4h[8:1],,5x,5,46,35,
4/2h[8:1],,2h[8:1]/4,5,2h[8:1]/6-3[8:1],,2h[8:1],,1,1,28,37,46,35,46,5bx/7bx,
8h[8:1]/4,,8h[8:1]/4,3,8h[8:1]/2-6[8:1],,8hx[8:1],,7h[8:1]/5x-1[8:1],,7h[8:1],,26,26,3bx/5bx,4bx/6bx,
7h[8:1]/5,,7h[8:1]/5,4,7h[8:1]/3,,{1}1h[4:3]/7V53V16[4:2],
{4}2x/5x,3/4h[4:3],3,3,3^8[4:1],4,4,{8}48,1,25,3,{4}46,5p8[4:1]/7,7,7,{8}78,1,27,3,46,5,26,7bx,
{4}1q5[4:1],8,8,8V61-5[4:3],5,4,3,{8}2x,2x,3,4,5,6,27,27,{16}1s5[2:1],8,1,8,{2}1,{8},

7x,7x-5[8:1]/4xqq1[4:3],,7bx,,,,8b,,7p1[4:1],,1q7[4:1],,,,8x,,
1-3[8:1]/7qq4[4:3],,1bx,,,,8b,,1,,2h[4:1]/6h[4:1],,,3h[4:1]/7h[4:1],,,
2-5[8:1]/6pp4[4:3],,A2f,,,,1b,,2p4[4:1],,4q2[4:1],,,,8x,,
1pp5[4:3]/7-4[8:1],,A7f,,,,8b,,7,,3h[4:1]/6h[4:1],,,3-1[8:1]/6-8[8:1],,3x/6x,,,
2h[4:1]/7,,4,4,E3,E5,E4,E6,8,1,2h[4:3],,C,,,,8h[4:1],,5,5,E7,E5,E6,E4,1,8,7h[8:3],1-5[8:1],{4},,
4h[8:3]/6>1[4:2],,,4x,5h[8:3]/3<8[4:2],,,
5x,6h[4:1]/1,{8}1,2h[4:1]/7,,7,3/8h[4:1],,3,2h[4:1]/7,,7,{4}36,36,4b/5b,

{8}3^8[4:1],,,7^4[4:1]/D2,,,3^8[4:1]/D6,,,7^4[4:1]/D2,,,3/D6,,2,,
2^5[4:1]/5,,,6^1[4:1]/D4,,,2^5[4:1]/D8,,,6^1[4:1]/D4,,,2/D8,,3,,
3^6[4:1]/7,,,7^2[4:1]/D5,,,3^6[4:1]/D1,,,7^2[4:1]/D5,,,3/D1,,3,,
3h[4:1]/8h[4:1],,,2h[4:1]/6h[4:1],,,3hbx[4:1]/5hbx[4:1],,,E3/B3/B5/E6,,8,8h[4:1],,
{8}1^4[4:1],,4b^7[4:1],,7^2[4:1],D6f,2^5[4:1],,5^8[4:1]/A2f,,8^3[4:1],D7f,3,,5b,,
7^4[4:1]/3,,4b^1[4:1],,1^6[4:1],D3f,6^3[4:1],,3b^8[4:1]/A6f,,8^5[4:1],D2f,5,,4b,,
3^6b[4:1],,6b^1b[4:1],,1^4b[4:1],D8f,4^7b[4:1],,7b^2b[4:1]/A4f,,2^5b[4:1],D1f,5,,7b,,
1^6b[4:1]/2,,6b^3b[4:1],,3^8b[4:1],D5f,8^5b[4:1],,5b^2b[4:1]/A8f,,2^7b[4:1],D4f,7,,5b,,
{4}5/6h[2:1],,4,4,35,35,26,{8}7,7,75,,6,,64,,35,3,35,,D3,,D4,,D5,,
56,56,47,47,38,38,12,12,78,78,16,16,25,25,34,34,
{16}5,4,5,4,6,3,5,4,7,2,6,3,8,1,8,1,{8}2b/7b,,34,26,,48,3b/7b,,

2-6[8:1],1-5[8:1],2,1,{16}3b,4,5x,6,7x,8,{8}1x-6[8:1],6-4[8:1],1,8x^3[8:1],,8/5V38[4:1],,1,7,,
4,1,1,28,3,45,6,7,12,3h[4:1]/8,,{16}7,6,5,4,8,1,2,3,{8}6-1[8:1],6,2-5V38[8:3],2,8,7,6,
5h[8:3],,8x-4[8:1],8x,8b-5b[8:1]*-6b[8:1],,8b-2b[8:1]*-3b[8:1],,8b,,,
15,1,{16}2,4,2,4,3,5,3,5,,,{4}6b/Cf,2b/Cf,8b/Cf,2b/6hb[4:1],
{8}8-4[8:1],7,8,{16}6b,5,4x,3,2x,1,{8}8x-3[8:1],3-5[8:1],8,1x^6[8:1],,1/4V61[4:1],,8,2,,
3,3,8,17,6,45,34,2,78,1/6h[4:1],,{16}2,3,4,5,1,8,7,6,{8}2^5[8:1],1^6[8:1],2,1,
E3/A3/B3,E7/A7/B7,E5/A5/B5,Ch[4:1],,1x-5[8:1],1x,{4}1b^3[8:1]*^7[8:1],1bw5b[8:1],1b,{8},
48,48,{16}7,5,7,5,6,4,6,4,,,{8}37,37,37,2bx/6bx,,

{16}1,8,1,8,1b,8,2,7,3,6,4,5,3b,4,2,5,1,6,8,7,1b,2,3,4,8b,1,2,3,7b,8,1,2,3/6b,,,,
5b,4,6,3,7,2,8,1,7b,8,6,1,5,2,4,3,5b,6,7,8,4b,5,6,7,3b,4,5,6,7/2b,,,,
{8}3-8[8:1],3,7-4V61[8:3],7,1,2,3,4h[4:1],,3,3-7[8:1],,1,1w5b[8:1],,1b,,,
36,36,{16}4,5,3,4,2,,{8}15,26,26,37,37,{16}48,37,{4}2b/6b,
1>5b[4:1],5<1[4:1],1>5b[4:1],5<1[4:1],1>5b[4:1],5<1[4:1],1>5b[4:1],5V31<5[2:1],
1b,5b>1b[4:1],1b<5[4:1],5b>1b[4:1],1b<5[4:1],5b>1b[4:1],1b,{8}8,8,1,
{4}2v8[4:1]/8v2[4:1],2^3-5[8:1]/8^7-5[8:1],A3/A7f,{8},
{4}7v1[4:1]/1v7[4:1],7^6-4[8:1]/1^2-4[8:1],A6/A2f,{4},
{64}2bx/8bx,3bx/7bx,4bx/6bx,5bxp1[64:11]*q1[64:11],,,,,{2},
{48}2bx/8bx,E8/E3,B7/B3,B6/B4,E6/E5,A5f,{8},,,{2}A4/B4/E4/E5/Cf/A8/B8/E1/E8,
{8}2h[8:1]/6h[8:1],,1bqq5b[4:9]/5b,{1}3bqq5b[8:17]/7b,,,,E

Re:MASTER


  • 追加しました。修正等ありましたらよろしくお願いします。 -- けもがみ (2023-01-30 09:10:26)
名前:
コメント:

タグ:

+ タグ編集
  • タグ:
最終更新:2026年10月21日 18:30