アットウィキロゴ

Don't Fight The Music

アーティスト 黒魔

BPM BASIC ADVANCED EXPERT MASTER Re:MASTER
195 5 9 12+ 14 -

EXPERT MASTER Re:MASTER
譜面制作者 ロシェ@ペンギン 翠楼屋 vs あまくちジンジャー -

BASIC


ADVANCED


EXPERT


MASTER

(195)
{1}Ch[1:1],{8},,1x/8x,,27,3,4h[4:1],,6,,
{12}E7,B6,B4,E4,,,E3,B3,B5,{8}E6/1hx[8:3],,,{16}E1,C,{4}E5,
E4/E6,B2/B4,B7/B5,2-5[8:1]/8-5[8:1],2b/8b,
4x/6x,{16}3,4,2hx[4:1],,,,6,5,7x-3[8:1],,,,1-5[8:1],,,,8,,7,,6,,
4x/5hx[4:1],,,,3,4,2h[4:1],,,,6,5,8-4[8:1],,,,3x,,2,,1,,8,,7,,
6x/4x,,,3/4h[16:3],,,1,,2,,4,,35,,,6/5h[16:3],,,8,,7,,6,,
{12}45,,3,3,4,2,8x,,6,6,5,7,{4}1hx[4:7],A8,A2,A7,A3,A6,A4,A5,
{12}2,3,4,7,6,5,E2,E3,E4,E8,E7,E6,{4}Chf[4:1],1b-4V25[4:5]*-6V85[4:5],{2},,,

{8}1x,,3h[4:1]/7,,4,3,5,3,4,3,6,3,4,3,5,3,4,3,2x,3,4,3,2,3,4,3,1,3,4,3,2,3,41,,
7h[4:1]/5,,6,7,5,7,6,7,4,7,6,7,5,7,6,7,8x,7,6,7,8,7,6,7,8,7,6,5,4,4,1x/7x,,
{16}2bx,4bx,2bx,4bx,2bhx[4:1],,,,4,,35,,6,5,6,,47,,3,4,2,,1V36[4:1]/5,,,,8,,8,,,,
7bx,5bx,7bx,5bx,7bhx[4:1],,,,5,,64,,3,4,3,,25,,6,5,6,,4/7^4[8:1],,,,1,,{4}1,
3h[6:1],2h[6:1]/4h[6:1],6h[6:1],57,B5/B7,C,B2/B4,C,
1x/8x,{12}6,4,5,3h[6:1],,,3,5,4,{4}6h[4:1],8h[4:1],1h[4:1],3h[4:1],
4-8[2:1],3,3,3,5-1[2:1],6,6,6,4-8[2:1],2,2,2,{12}7x,3,5,2x,6,4,{4}3b/7b,,
45,1-4[8:1]/2v3-5[8:1],1/2/E2f,,34,8v5[8:1]/7v6-4[8:1],8/7/E8f,,56,1s5[8:1]/2v3-5[8:1],1/2/E2f,,
{12}8,,17,,2,3,45,,57,,18,,{4}27,D1,E2,B7,B3,E5,E4/E6,,{16}4,5,4,5,3,5,3,5,2,5,2,5,1,5,1,5,
{4}8xw4[8:1],{32}A8,B8,C,B4,A4,,,,{2}2b/6b,

(200)
{8}2x-4[8:1],1x-5[8:1],2x,1x,8x-2[8:1],7x-3[8:1],8x-4[8:1],7x,{4}8x^5[8:1],8x^3[8:1],5x-1[8:1]/8,5/7x,
2bx/8bx,{8}35,7bx/1bx,,{16}2,4,3,5,4,6,5bx,,,1bx/8bx,,,{8}2bx-5-1[4:1]/5bx,,6,8,,
7x-5[8:1],8x-4[8:1],7x,8x,1x-7[8:1],2x-6[8:1],1x-5[8:1],2x,{4}1x^4[8:1],1x^6[8:1],{16}4x-8[8:1]/1,,,3x,
{8}4x,1,2b-6[8:1],,12,7bhx[4:1],,{16}8,1,2,3,4,,5bx/7bx,,,1bx/8bx,,,{8}2bx/6bx,,45,45,,
3/7q3^8[2:1],,4,4,4,4,4,,2p6^1[2:1],,5,5,5,5,5,,6p2^5[2:1],,1,1,1,1,1,,
78,16,25,34,{2}E2/A2/B2/E3/Cf/A5/E6/E5/B5,
{12}6h[4:1]/1,,,8,7,8,1h[4:1]/6,,,7,5,6,1,3,2,6,4,5,2,4,3,8,,,
{32}2b,1,,,2b,1,,,{8},{32}7b,8,,,7b,8,,,{8},{32}6b,5,,,6b,5,,,{8},{32}3b,4,,,3b,4,,,{8},
{12}1bx-5[8:1]/8b-4[8:1],1b/8bx,1bx/8b,1b/8bx,,,{4}A3/E4/A6/E6,
1x/8x,{8}27,6,5h[4:1],,3,,{12}E3,B3,B5,E6,,,{12}E7,B6,B4,{8}E4/8hbx[8:3],,,{16}E1,C,
{4}E5,E6/E4,B7/B5,B2/B4,C,,

(190)
{8}2,,3,5,4,6,5,,7h[4:1],,{12}6,5,4,6h[4:1],,,5,4,3,{4}2h[2:1],{16},,6,5,{4}4,34,45,56,45,
{32},,,,,,,E4,{8}B3,A8,B1,A7,C,A6,{4}E5,A4/A5,,{12}B8,B7,E7,E3,B3,B4,{4}E5,B6,B3,E5,D4,D5,D6,,
(126.66666){12}46,5,4,(120)36,5,4,(110)35,4,3,(100)25,4,3,(90)24,3,2,
(50){4}1h[4:1]/3,{48}D3,A2,D2,A1,D1,A8,D8,A7,D7,A6,,,{4},
(190){1}4h[16:1]/5h[16:1],5w1[4:13],,,,{8}6,5,4,3h[4:1],,E6,E5,E4,A6,A5,A4,A3,B6,B5,B4,B3,
(185){2}7h[144:109],(180)2h[4:1],(175){12}B2,B7,B3,B6,E4,E6,(150){4}Ch[4:3],,,

(200)
{8}8x,,18,,27,27,36,36,45,45,56,56,45,45,{16}3,4,3,4,
{8}2-5[8:1],,2b/8,7-3[8:1],,7b/8,,{16}2,4,3,5,4,,5/7b,,,1b/8,,,{8}2b/6b,,45,2x/8x,,
7x-5b[8:1],8x-4b[8:1],7x,8x,1x-7b[8:1],2x-6b[8:1],1x-5b[8:1],2x,
{4}1x^4b[8:1],1x^6b[8:1],{16}4x-8b[8:1]/1x,,,3x,
{8}4x,2,7b/1b,,56,3b/8b,,{16}7,5,6,4,5,,2b/4x,,,1b/8x,,,{4}3x/7bp3[4:1],,{8},
2-4^5-1-7[2:1],,6,6,6,6,6,,7-5^4-8-2[2:1]/2,,3,3,3,3,3,,4-2^1-5-7[2:1],,8,8,8,8,8h[4:1],,6,5,46,35,{2}2/Cf,
{12}2hbx[6:1]/7hbx[6:1],,,6,5,6,4hbx[6:1]/7hbx[6:1],,,3,4,3,5hbx[6:1]/2hbx[6:1],,,6,5,7,
{4}4bx-1b[8:1]/8bx-5b[8:1],48,2bx/6bx,{12}7,8,6,4hbx[6:1]/7hbx[6:1],,,3,4,2,7,8,6,2,1,3,
{4}4^2[8:1]/5^7[8:1],45,1xs5[8:1]`8bxz4b[8:1],E1f,{8},

26,6,6,{12}1b,2,3,8b,1,2,7b,8,1,{4}2/6b^1b[8:1],5b,{16}3bx,4bx,3bx,4bx,1bx,8,1bx,8,
{8}1bx-5b[8:1],,1b/8-4b[8:1],7,8/1b-5b[8:1],2,1b/6b,7,8b/3b,,
{16}2^5[8:1],1,3h[4:1],,{4},{16}6^1[8:1],5,7h[4:1],,{4},
{16}2^7[8:1],1,3h[4:1],,{4},{16}6^3[8:1],5,7h[4:1],,{4},
{16}8,7,6,5,2,3,4,5,8,7,6,5,2,1,2,1,{12}3x,3,4,7x,7,5,4x,4,3,
{4}1b-6[8:1],2/1-4[8:1],8/1-6[8:1],1-4[8:1]/3,1/5-8b[8:1],3/5-2b[8:1],57,{16}16,,,8x,
{8}8x-6b[8:1],1x-5[8:1],8-4b[8:1],1-3[8:1],8-6b[8:1],1-5[8:1],8-4b[8:1],1-3[8:1],8,1,8b,,
78,16,,{16}2,4,3,,7,5,6,,{8}57,3,24,1,57,8,24,{16}1,7,2,6,3,5,4,,6b/Cf,,,2b/Cf,,,8b/Cf,,{4},,,

1-5[8:1],{8}16,6-2[8:1],6,64,4-8[8:1],4,41,1-5[8:1],1,13,3-7[8:1],3,37,,
8-4b[8:1],,48,3-7b[8:1],2,37,6-2b[8:1],5,62,1-5b[8:1],8,15,4-8b[8:1],3,{4}24,1x/7x,
2b/8b,{8}57,57,45,45,24,24,35,46,57,68,57,46,37,37,
{16}6b,4x,5bx,3,7hb[1280:1],1hx[1280:1],8hbx[1280:1],2h,6b,4,5bhx[1280:1],3x,
{8}2x/8b-4[8:1],,4x/8b,2-5[8:1],,2b/5x,6-1[8:1],,{12}1b/6b,,4b,,2b/8bh[48:19],,,,,
{48}1bx/7x,2bx/6x,3bx/5x,4bx,,,,,,,,,{1}2v3-5[1:2]`7bV51b[1:2],,,,E

Re:MASTER


  • 追加しました。修正等ありましたらよろしくお願いします。 -- けもがみ (2023-01-31 07:40:02)
名前:
コメント:

タグ:

+ タグ編集
  • タグ:
最終更新:2026年10月19日 09:21