アットウィキロゴ

火炎地獄〈スタンダード〉

アーティスト 山根ミチル

BPM EASY BASIC ADVANCED EXPERT MASTER Re:MASTER
216 3 5 9+ 12+ 14 -

EXPERT MASTER Re:MASTER
譜面制作者 某S氏 mai-Star -

EASY


BASIC


ADVANCED


EXPERT


MASTER

(216){2}1s5[2:1],,,
{8}12,,56,,78,,34,,48,15,,37,26,,18,,45,,78,34,12,5b/6b,,,

1-5[16:1],,7,7-3[16:1],,5,5-2[16:1],,,,
8-4[16:1],,2,2-6[16:1],,4,4-7[16:1],,,,
2-5[16:1],,8,8-3[16:1],,5,5-1[16:1],,,,
7-4[16:1],,1,1-6[16:1],,4,4-8[16:1],,1,,
2-6[16:1],4-8[16:1],,,,6,6-3[16:1],,,,
8-4[16:1],2-6[16:1],,,,4,4-7[16:1],,,,
6-4[16:1],1-5[16:1],,,,5,5-2[16:1],,,,
7-3[16:1],2-4[16:1],,,,3,3-6[16:1],,1,,
8-3[16:1],1-6[16:1],,,,3,3-6[16:1],,,,
1-6[16:1],8-3[16:1],,,,1,6-3[16:1],,,,
2-6[16:1],7-3[16:1],,5-8[16:1],,,1-4[16:1],,,,
1-5[16:1],7-3[16:1],,4-1[16:1],,,8-5[16:1],,,,
{2}1h[24:13],{24},2h[24:11],,,,,{4},
{4}5h[4:1],4h[2:1],,8h[2:1],,7h[4:1],
1h[2:1],,5h[2:1],,,{32},6z2[32:11]/7,,,,,,,{4},,,,

{8}
7-3[16:1],,1,1-5[16:1],,2,2-6[16:1],,,,
8-2[16:1],,6,6-4[16:1],,2,2-6[16:1],,,,
8-4[16:1],,2,2-6[16:1],,3,3-7[16:1],,,,
1-7[16:1],,5,5-3[16:1],,7,7-3[16:1],,,,
1-7[16:1],8-2[16:1],,,,27,2-5[16:1]/7-4[16:1],,,,
4-6[16:1],5-3[16:1],,,,36,3-8[16:1]/6-1[16:1],,,,
2-6[16:1],8-4[16:1],,,,46,4-8[16:1]/6-2[16:1],,,,
7-3[16:1],1-5[16:1],,,,35,3v1[16:1]/5v7[16:1],,,,

78,,34,,78,12,,56,,12,23,,67,,23,17,,35,,37,
26,,28,,46,48,,26,,48,15,,24,,78,34,,,,,

(172.8)
{12}
3,4,2,4,1,4,3,5,3,7,3,6,
5,7,5,8,5,6,4,6,2,8,,,
1,5,2,6,3,7,4,8,5,1,4,8,
3,7,2,6,1,5,4,8,1,45,,,
3,7,3,4,2,4,3,5,3,4,8,7,
1,7,8,6,8,7,4,5,2,5,4,7,
2,5,4,7,1,6,3,8,2,7,4,5,
1,7,3,8,4,6,2,5,1,28,,,
1b,1,1,{13}5b,{12}5,5,{156},{13}3b,{12}3,{156},{12}7,7b,,,
2b,2,2,6b,6,6,4b,4,8,8b,,,
1b,1,2,3b,3,2,1b,1,8,8b,,,
6b,6,5,4b,4,5,6b,6,3,3b,,,

(216)
{8}15,37,48,26,,18,18,,15,26,37,48,37,26,15,48,,
{16},{8}12,,56,,78,,34,,{16},

{8}1v6[16:1],,7,7v4[16:1],,6-2[16:1],,,,
8v3[16:1],,2,2v5[16:1],,3-7[16:1],,,,
8-6[16:1],,2,2-6[16:1],,7-3[16:1],,,,
2-4[16:1],,8,8-4[16:1],,2-6[16:1],,,,
1^6[16:1],,2,2p6[16:1],,7v4[16:1],,,,
8^3[16:1],,7,7q3[16:1],,2v5[16:1],,,,
1p5[16:1],,6,6v3[16:1],,5v4[16:1],,,,
8q4[16:1],,3,3v6[16:1],,4v5[16:1],,3,,

7h[8:3],,6,5h[8:3],,2,1h[8:3],,7,8h[8:3],,2,6h[4:1],,4h[8:3],,3,7,,
1h[8:3],,2,8h[8:3],,7,1h[8:3],,,
8v5[16:1],,8v3[16:1],,8-4[16:1],,8s4[8:1],,

7,,7,7p2[16:1],,4v5[16:1],,,,
1v7[16:1],,5,5v3[16:1],,7-3[16:1],,,,
8v2[16:1],,4,4v6[16:1],,2-6[16:1],,,,
1-5[16:1]/8-4[16:1],,,36,,2-5[16:1]/7-4[16:1],,,,

1,1h[16:9],,,{16},{8}3,8h[16:9],,,{16},{8}6,2h[16:9],,,{16},{8}1,5h[16:9],,,{16},
{8}7,4h[16:9],,,{16},{8}3,8h[16:9],,,{16},{8}7,5h[16:9],,,{16},{8}1,1,,,{16},

{8}1-6[16:1]/2-5[16:1],,,,4b/7b,7-4[16:1]/8-3[16:1],,,,2b/5b,
1-4[16:1]/2-6[16:1],,,,3b/5b,7-3[16:1]/8-5[16:1],,,,4b/6b,
2-5[16:1]/8-4[16:1],,,,3b/6b,7-4[16:1]/1-5[16:1],,,,3b/6b,
2-5[16:1]/7-4[16:1],,,,3b/6b,4-1[16:1]/5-8[16:1],,,,2b/7b,
1-3[16:1]/5-7[16:1],,,,3b/7b,3-6[16:1]/7-2[16:1],,,,2b/6b,
2-8[16:1]/6-4[16:1],,,,4b/8b,4-1[16:1]/8-5[16:1],,,,1b/5b,
1-7[16:1]/5-3[16:1],,,,3b/7b,3-6[16:1]/7-2[16:1],,,,2b/6b,
2-4[16:1]/6-8[16:1],,,,4b/8b,4v2[16:1]/8v6[16:1],,,,48,
48,37,26,15,,37,15,,2,1,8,6,7,8,1,

3h[8:11],,2,,4,,8,,6,,6,6h[1:1],,7,,5,,1,,3,,,,
{8}
2b/3b,6b/7b,3b/4b,5b/6b,2b/7b,4b/5b,1b/8b,

Re:MASTER


  • 終盤のホールド地帯は間違ってるかもです -- 名無しさん (2015-03-17 14:05:13)
  • MASTER譜面のノーツの配置ミス、SLIDEの速度の修正を行いました。 -- けもがみ (2026-05-13 20:35:00)
  • ↑なお、公式で一度譜面が修正されており、こちらの譜面データは修正後の譜面となっております。 -- けもがみ (2026-05-13 20:52:33)
名前:
コメント:

タグ:

+ タグ編集
  • タグ:
最終更新:2026年10月04日 20:59