| アーティスト |
鳳 ここな(CV.石見舞菜香)、静香(CV.長谷川育美)、カトリナ・グリーベル(CV.天城サリー)、新妻八恵(CV.長縄まりあ)、柳場ぱんだ(CV.大空直美)、流石知冴(CV.佐々木李子) |
BASIC
ADVANCED
EXPERT
MASTER
Re:MASTER
(158)
{24}4,5,4,5,4,5,4,5>6[24:23],4,5,4,5,{1}4b,{2}2-5[4:1],6-1[4:1],{1}2q5[4:3],6<3[2:1],
4q1[2:1],8q5[2:1],4q5[4:3],6<3[2:1],{4}4h[4:3],5,5,5-8[4:1],,,{16}1,8,1,,{4}27,
4-8[8:1]/5-1[8:1],4bx/5bx,{8}7x/8x,6,12,3,78,6,12,{16}3,4,3,4,2,5,2,5,{8}3,
4/2-5[8:1],,1b/2b,,7,8-6[8:1]/1-6[8:1],2,{4}8-3[8:1]/1-3[8:1],8-6[8:1]/1-6[8:1],18,{8}18,{4}27,
1-5[8:1]/8-4[8:1],1bx/8bx,{8}5x/6x,7,34,2,56,7,34,{16}2,1,2,1,3,8,3,8,{8}3,
12,{24}1hx[8:1]/2x,3x,4x,{8}5x,87,{24}8hx[8:1]/7x,6x,5x,{8}4x,12,{24}1hx[8:1]/2x,3x,4x,
{8}5x,78,16,25,{16}3,4,2,,8,1,7,,
{8}2bV41-5[2:1]/6bh[4:1],,,7,7,,8,,57,6,3/5-2[8:1]*-8[8:1],4,,,{4}37,
2-5[4:1],5-1[4:1],1-6[4:1],6-3-8[2:1],7hx[2:1],,,26,
{8}34,34,25,1^3[8:1]/6,,{16}6,7,{8}8,,65,65,74,8^6[8:1]/3,,{16}3,2,{8}1,,
34,34,25,25,16,16,78,78,{4}1w5[8:1]/6,1x,3-8[8:1]/7-4[8:1],3b/7b,
{8},1,1>5[4:1],5,{16}5x,,,7x,,,{8}8x,8-4[8:1],5<3[16:5],8,5,{2},
{8}57,6,24,3,{16}7h[16:3],,,6h[16:3],,,5,,{4}5<1<5[2:1],1,4,2,
{8}12,12,38,4^2[8:1]/7,,{16}7,6,{8}5,,87,87,61,5^7[8:1]/2,,{16}2,3,{4}4,
8^5[4:1],5p1[4:1],1^4[4:1],4q8[4:1],8^5[4:1],5q1[4:1],1^4[4:1],
{1}4qq1[8:5]*pp7[8:5],{8},28,,46,37,{4}2-5[8:1]/8-5[8:1],2x/8x,{8},
2,2-5[8:1],{16}3,4,2,,7,,7-4[8:1],,6,5,7,,3,,3-8[8:1],,2,1,3,,6,,6-1[8:1],,7,8,6,,
2,,2,,6,5,6,,45,,3,24,,6,57,,{4}1-5[8:1]/2-6[8:1],12,{16}4h[8:1]/8h[8:1],,,2b/6b,{8},,
1-5[8:1],6-8[8:1],1,6,4,{16}2,1,,3,4,,{4}1-5[8:1],1/6p4[8:3],2,,
(200)
1x,1x,{16}5,4,5,4,{8}36,,6,5,47,6,5,6,47,6,3,4,52,3,4,3,25,,
46,46,35,35,{16}2,4,2,4,{4}2,18,27,{16}36,,4,7,{8}1,,
2b/6b,{16}3,4,{8}2-5[8:1],1,7-4[8:1],8,2,3,{16}3,4,2,,18,,6,5,7,,18,,{4}2-6[8:1]b,
2b/1b-5[8:1],1b/8b-4[8:1]b,8b/7b-3[8:1],7b/8b,2^5[8:1]/5,{24}26,7,8,{4}1^6[8:1],{24}15,4,3,{8}2,,
15,{16}2,4,{8}3-8[8:1],2,7-4[8:1],6,1,2,{16}3,4,2,,18,,6,5,7,,18,,{4}2-6[8:1]b,
2b/4b-8[8:1],4b/5b-1[8:1]b,5b/7b-3[8:1],7b/8b,2^7[8:1]b,{16}26,5,4,3,2,1,8,7,{4}6/C,
18,{8}2-6[8:1],6,2-4[8:1],4-8[8:1],2,7qq4[8:3],,3,{4}3,1^4[8:1]*^6[8:1],1w5[8:1],
1,3x/7x,12,{8}48,{4}4^1[8:1]/8^5[8:1],4-7[8:1]/8-3[8:1],4-8[8:1]/8-4[8:1],48,{8},
7,7-4[8:1],8,71,3,3-8[8:1],4,35,6,6-1[8:1],5,46,2,2,1,38,
{16}47,,6,5,6,,25,,3,4,{8}3,47,47,,25,25,3,46,37,2b/8b,,
{16}4x,6,4,6,4x,6,4,6,3x,6,3,6,3x,6,3,6,3x,5,3,5,3x,5,3,5,2x,5,2,5,2x,5,2,5,
3x,4,3,4,2x,5,2,5,1x,6,1,6,8x,7,8,7,1x/6x,,3,4,3,,47,,6,5,6,,{4}37,
{16}2x,1,2,1,2x,1,2,1,3x,8,3,8,3x,8,3,8,4x,7,4,7,3x,6,3,6,2x,5,2,5,1x,6,1,6,
8b,7,1,6,8b,7,1,6,8b,7,1,6,8b,7,1,6,2x/5x,,3,4,3,,45,,6,5,7,,{4}48,
3-8[8:1],5h[4:1],{8}7-2[8:1],7,5^8[8:1],5,,2,{4}2,45,7/8>4[4:1]b,
4<8[4:1]b,8>4[4:1]b,4,{8}6,6,,24,,57,,18,{4}2-5[8:1]/7,
2/6-1[8:1],6/3-8[8:1],3/7-4[8:1],7/1-5[8:1],{8}1/8-4[8:1],8,8/2-5[8:1],2,2/6-1[8:1],6,62,2,
28,{16}6,5,6,,71,,3,4,3,,28,,6,5,6,,4,5,3,6,2,7,1-5[8:1],5,3,7,{4}1b>8[1:1],{1}B6/B7/E7f,,,,E
- 追加しました。修正等ありましたらよろしくお願いします。 -- けもがみ (2024-11-14 05:08:59)
最終更新:2024年11月14日 05:08