| アーティスト |
40mP × sasakure.UK / 初音ミク「劇場版プロジェクトセカイ 壊れたセカイと歌えないミク」 |
BASIC
ADVANCED
EXPERT
(156)
{4}
{8}1b>4[8:5]b,,,,,,,
{2}6h[2:1],5,4/5<8[4:3],,2h[2:1],1,
{4}1,1,2,3,4,5,4/6,
{8}4/6p3[8:5],{1},{8}2xh[8:5],,,,,
{4}4,4/5,3b/6b,
{8}8x,8x,,5/7,5/7,,4/5,,1,1,,2/4,2/4,,4/5,,8,8,,5/7,5,,6h[4:1],,4,4,,3/5,3/5,,2h[4:1],,1,1,,2/8,2/8,,7h[4:1],,8,8,,1/7,1/7,,3h[4:1],,4,4h[4:1],,5,5h[4:1],,6,6,,4/8,4b/8b,,,,
{2}3<6[4:3],,,
{4}7,7,5qq5[4:3]*pp5[4:3],,,,,,
{2}7h[2:1],6h[2:1],5h[2:1],4h[2:1],3h[2:1],Ch[1:1],,,1/8,
{4}2,2,3/4,5/6,7,7,5/6,3/4,2h[4:1],1,7h[4:1],8,1,2,3/4,3/4,5,6,7/8,6,4,3,1/2,3,3h[4:1]/4h[4:1],,
{2}5h[4:1]/6h[4:1],Cfh[2:1],,
{8}1x,,1/8,,2,2,1,,8,,1/8,,7,7,8,,6,,5/6,,3,3,4,,
{4}3/5,6/4>1[4:1],,,7,7/8,
{8}6,6,5,,3,,3/4,,2,2,1,,
{4}2/8<5[4:1],,4,4,3/5,,
{2}1b/7b,1>4[4:1],8<5[4:1],3h[2:1],
{8}4,4,3,,
{2}5<8[4:1],1>4[4:1],7xh[2:1],
{4}8,1/8,E2,E3,E4,E5,E6,E7,E8,C,1,
{8}2/8,2/8,,1/7,,2h[8:5]/6h[8:5],{1},{8}3,3,4,,5/6,,7,7,8,,
{4}1/2,1/8,7/8,
{8}6,6,5,,3/4,,2,2,1,,
{4}7/8,1/8,2/7,3/6,4/7,3/6,2/5,3/4,
{8}4/5,4/5,,6,6,5b,,4/7,4/7,,3/8,3/8,,3b/4b,,2/5,2/5,,6,1/6h[4:1],,8x,,1/7,1/7,,2/8,2-5[4:1]/8-4[4:1],,,,,,2bh[8:3]/6bh[8:3],,,,,3b/5b,,1/2,1/2,,
{4}7/8,5/6,3/4,1/2,
{8}3/8,3/8,,4b/5b,,1/3,1/3,,6/8,6/8,,4/5,,2/8,2b/8b,,
{4}3/7,6h[4:1],8h[4:1],2h[4:1],4h[4:1],6h[4:1],8h[4:1],2h[4:1],
{8}1,1,,3/8,3/8,,4/7,,6/3>6[8:3],,,,,,,4/5,,1/8,,2,2,1/3,,7,7,6/8,,3,3,4,4,2h[4:1],,1,,7,7,6/8,,2,2,1/3,,
{4}4/5,6/7,1/8,2b>5[4:1]/6b<1[4:1],,,4/8,
{8}3x/7x,3x/7x,,4/5,,1b/8b,,3b/6bh[8:3],,,
{4}5>2[4:1],,8<5[4:1],,1,2h[4:1],
{8}4,4,3,,
{4}3/4<7[4:1],,1>4[4:1],,8,8h[4:1],
{8}5,5,6,,
{2}7-4[8:1]/8-4[8:1],1-5[8:1]/2-5[8:1],7-4[8:1]/8-4[8:1],
{16}1/2,,,,3/8,,,,7h[16:3],,,5h[16:3],,,
{4}6,3/4,6b/1b>7[2:1]b,,,8x-4[8:1],
E
MASTER
(156)
{4}4,4-1[8:3],,,5,5-8[8:3],,,3,3>8[8:3],,,6,6<1[8:3],,,
{4}3xh[1:1],E4,E5,E6,6xh[1:1],D6,D5,D4,
{8}3xh[4:1],,,4h[4:1]/6h[4:1],,,5,5xw1[8:5],{4},,,,{8}2b/8b,
{16}7,5,6,,
{8}3/4,2,5/3-8[8:1],6,7,,4/3>7[4:1],5,6h[4:1],,,1b/5b,,8/7,
{16}2,4,3,,
{8}6/5,7,4/6-1[8:1],3,2,,5/6<2[4:1],4,3h[4:1],,,8b/4b,,1/2,
{16}7,5,6,,
{8}3/4,2,5/3-8[8:1],6,7,,4/3>7[4:1],5,6h[4:1],,,1b/5b,,
{16}2h[8:1]/4h[8:1],,,2/4,,,7h[8:1]/5h[8:1],,,7/5,,,
{16}2h[8:1]/1h[8:1],,,2/1,,,5h[8:1]/6h[8:1],,,5/6<3[16:7],,,
{2}Chf[2:1],,,3h[2:1],B3,4h[2:1],B4,5h[2:1],B5,
{2}4/6h[2:1],B6,5/3h[2:1],B3,5/4,Ch[2:1],B6/B3,
{4}1,1,2/4-7[4:1],
{8}3,3h[8:3],,,8x,,7/5>2[4:1],,6,6h[8:3],,,1x,,3h[4:1],,4,4,3,3V14[8:3]*pp4[8:3],
{4},,,5h[4:1],6h[4:1],7V51[16:5],
{8}2,2h[8:3],,,1x,,3V15[16:5],,6,6h[8:3],,,5x,,6h[2:1],,
{8}5,4,3h[8:3],,5,5,,6<2[16:5]/2v4[16:5],{4},,,{8}4x/3x,2,
{4}4/1-7[8:1],4/1,4,4/7,4/8-2[8:1],4/8,
{8}4,3,5/3>7[4:1],,7<3[4:1],,3,,7,6,5s1[8:3],4z8[4:1]b,{4},,,{8}6/5,7,
{4}5/8-2[8:1],5/8,5,5/2,5/1-7[8:1],1/5,
{8}5,6,6/4,,7/2,6/3,5/4,5<3[8:3]/4>6[8:3],,E6/D6/A5/E4/A4/D4,,,,,
{16}4,5,4,,
{8}2b/7b,,4h[4:1]/6V82[16:5],,,,3,E4/D4/A4f,,,
{8}5h[4:1]/3V17[16:5],,,,6,E6/D6/A5f,,,
{8}4/5<2[16:5],,,,3,3h[4:1],,4,,A2/D2/D3/E2/B2/B3/E4/B4/A4f/E5,,,
{4}6b,7b,8bx/2x,{8}8/3<6[8:1],3,
{4}8,8,1/7,{8}1/6>3[8:1],6,
{4}1,1,2/4,{8}5/7,7/5,,6/3<1[32:17],,6h[8:7],,,,
{32},,,2x,3x,4xh[32:7],,,,,,,{4},
{8}E1,E2,E3,E8,C,E4,E7,E6,E5,E8/B7,B4/E4,Ch[8:3],,1b,1b,,
{8}E1,E8,E7,E2,C,E6,E3,E4,E5,E2/B2,E6/B5,Ch[8:3],,8b,8b,,
{8}A7,E1,A2,E7,C,E3,A6,E5,A3,B6/B5,B4/B3,C,,
{8}2x/1x-5[8:1],,1b/8b,,6,4/7-5v3[8:3],,2,2,2,1xv4>3v6[2:1],,8,8,,7,7,7,
{8}4x/8xh[4:3],,3,2,1,7,6,5,8x/4x,,A7/B7/E8,B3/E4/A3,Chf[4:1],,1b,,,
{8}3/7<4[8:1],,2,2<7[8:1],,3,3,4,1/5<8[8:1],,2,2>5[8:1],,1,8,
{16}7,7,5bv2[8:1],,
{8},8,8q5[8:1],,3,3,2,1v6[8:1],,8,8,,7/4,
{16}6,5,6,5,6b,,
{8}5/4-1[8:1],3,2bh[4:1],,8,7/1,2,3b,4/5-8[8:1],6,7bh[4:1],,
{8}1,2/8,7/3,6h[4:1]/4h[4:1],,,2/4,5/3,6/4,7/5,8b/4bh[4:3],,1x,2x,3x,,
{48}A3/D3f,A2,D2,A1,D1,A8,D8,A7,D7,A6,D6,,,,,,,,
{8}5bx/2bx,3<6[8:1],7,8qq8[4:1],,1,2,3V14[4:1]b*pp4[4:1]b,,,,,
{8}1bx/8bx,,7,6/5,4/3,,7/8,1/2,,2/8,3/7,6/4h[4:3],
{24}E6/E7f,E8,E1,E2,E3,E4,,,,
{48}A3/D3f,A2,D2,A1,D1,A8,D8,A7,D7,A6,D6,A5,
{8},,,6v3[16:3],,2,2<7[16:3],,4,5,6,,6/8,5/1,4b/2b,,C/E1/B1/B2/E3f/B3/B4/E5,,,
{8}6>3[16:3],,1,2q6[16:3],,1,1,8-4[8:1],,8/3-6[8:1],,3/7>2[8:1],,
{8}7/4,,5/1,1<8-6[16:3]b/5>4-2[16:3]b,,,,,
{8}1/5,6/2,7/3h[8:3],,1,8,7,6/3,6/3,
{16}5,4,5,4,
{8}6b-8[8:1],6,5b-1[8:1],5,6b<1[8:1]b,6,5b,4,
{8}3b-1[8:1],3,4b-8[8:1],4,3b>8[8:1]b,3,4b,5,
{16}6h[8:1],,,2h[8:1]/4h[8:1],,,
{8}6h[8:1]/8h[8:1],,1/7,3/8,4b/1b<6[8:1],,
{24}5x,4x,3x,2x,,,
{8}8bx/1bx,,7/3,4/8,5b>1[16:23]/1b<5s1[8:23]b,
E
Re:MASTER
最終更新:2026年06月27日 21:38