アットウィキロゴ

Worlders

アーティスト じん / バーチャル・シンガー、Leo/need、MORE MORE JUMP!、Vivid BAD SQUAD、ワンダーランズ×ショウタイム、25時、ナイトコードで。「劇場版プロジェクトセカイ 壊れたセカイと歌えないミク」

BPM BASIC ADVANCED EXPERT MASTER Re:MASTER
137 2 6 9+ 12+ -

EXPERT MASTER Re:MASTER
譜面制作者 Luxizhel カマボコ君 -

BASIC


ADVANCED


EXPERT


MASTER

(137.5)
{8}1bx/8bx,,3/7,{24}6,5x,6x,4x,,,
{8}3,2,1h[4:1],,{24}4,2x,4x,3x,,,
{8}5,6,5/7,5/7,4/6,3/7,,2/6,{24}3,4x,3x,5x,,,
{8}6,7,8h[4:1],,{24}5,7x,5x,6x,,,
{8}4,3,2/4,2/4,5,3b/6b,,
{16}7,,7,5,6,,{8}6^8[8:1],,4,4,,
{16}3,,3,4,2,,{8}1,8,7,6-4[8:1],,3-1[8:1],3,7,
{4}7h[4:1],5h[4:1],4h[4:1],2h[4:1],
{8}1,1,,3/4,,2,{16}2,4,3,,{8}3,5,7^4[8:1],,1,,
{8}2-5[8:1],,6,7,8^5[8:1],,5,4,4-8[8:1],,5,5>7[8:3],,{4},,,
{8}1-4[8:1],8,1-5[8:1],,1^4[8:1],,1^6[8:1],,1,,5,4,3,2h[4:1],,4,
{8}5-8[8:1],4,5-1[8:1],,5^8[8:1],,5^2[8:1],,5,,8,7,6,5h[4:1],,8,
{8}1,2/6,2v3[16:3]/6v7[16:3],,,,,4x/8x,,3,
{16}3h[16:3],,,1h[16:3],,,8,,,,7,,7<3[4:1],,3,,2,,,8,,,
{8}1,1,,7,7h[4:1],,5,4/6,3/5,
{16}3,4,3,4,3,4,3,4,
{4}2b-5[4:1],5,6,6,6/5p8[4:1],6,6,6,6/8-4[4:1],
{4}6,6,6,6/5^4-1[4:1],6,6,1/5,1/5-8[4:1],
{4}2,2,2/8x,2/1p4[4:1],2,2,2/4x,2/5s1[8:3],
{4}2,2,2,2/1s5[8:3],2,2,1h[4:1],
{8}6-1[8:1],6,3-8[8:1],3,5,5,4,4,
{16}3,5,3,5,3,,6,4,6,,
{8}5/7,7/5>8[4:2],,8bx,7bx,6bx,5bx,4bx,3bx,2bx,1bx,,
{8}8,8,4,3/5,2,1-6V83[8:5],,4,,5x,5x,,
{8}8,8-3V16[8:5],,5,,4x,4x,,2,1,1>5[4:1],,
{8}5b,7b,1b<5[4:1],,5,3,1>5[4:1],,5b,7b,1b<5[4:1],,5,3,1,1,
{16},2/4,,,5/6,,
{8}6/5qq1[4:2],7b,8b,1b,,
{8}8,7,6,5,2bx/4bx,2/4<1[4:2],,1x,2x,3x,4x,5x,6x,7x,8x,,
{8}1,1,5,4/6,7,8-4-1-6[8:5],,5,,3x,3x,,
{8}1,1-5-8-3[8:5],,4,,6x,6x,,7,8,8V64[4:1],,
{8}4x,2x,8bxV24[4:1],,4,6,8V64[4:1],,4x,2x,8bxV24[4:1],,4,6,8,8h[4:1],,
{8}5,4,,1q8[8:3]/2>8[8:3],1/2,{4},,,
{8}6,5,4>8[4:1],,8x,6x,4bx<8[4:1],,
{8}8,2,4>8[4:1],,8x,6x,4bx<8[4:1],,8,2,3,3hx[4:3],,
{4},,4b>6<4[4:4],E2f/B1/B2,,,,,2x/8x,
{8}5,6,7x/8x,,4,,1x/2x,,3/4,,5x,6x,
{4}7/5-1[8:1],6-2[8:1],4-1[4:1],5,6b,1x/7x,
{8}4,3,1x/2x,,5,,8x/7x,,5,4,1x/3x,,5,,8x/7x,,4,3,
{4}2<5[4:2]b/4q5[4:2]b,2bx/4bx,,,4x/6x,3x/4x,
{4}1b-6[8:1]/2b-5[8:1],1b/2b,7<3[4:1],3>7[4:1],7,3,
{8}1/5,3,5/7,,
{4}8b-3[8:1]/7b-4[8:1],8b/7b,6<2[4:1],2<6[4:1],4,4,3/5,4/6,
{4}6b-1[8:1]/5b-2[8:1],6b/5b,3<7[4:1],7>3[4:1],3,7,
{8}1/5,2,
{4}3b-8[8:1]/4b-8[8:1],3b/4b,6b-1[8:1]/5b-1[8:1],6b/5b,
{4}8-4[8:1],8-2[8:1],8<4[4:1],8b,
{16}3,,,3,4,,{8}2h[4:1],,4,5,,
{16}6,,,6,5,,{8}7h[4:1],,5,4,,
{16}3/5,,,3,5,4,3,2,1,8,7,6,5,4,3,2,1,,,3,4,,
{8}2h[4:1],,4,5-3>6-4[4:12],5,3bhx[4:13],
E

Re:MASTER


名前:
コメント:

タグ:

+ タグ編集
  • タグ:
最終更新:2026年04月07日 21:55