| アーティスト |
Giga & Mitchie M / 初音ミク、花里みのり、小豆沢こはね「プロジェクトセカイ カラフルステージ! feat. 初音ミク」 |
BASIC
(160)
{1},1,1,1h[1:1],,8,8,8h[1:1],,1,2,3,4,5,6,7,{2}8,8,
{1}8x-5[4:3],,1-4[4:3],,8-4[4:3],,1-5[4:3],,
{2}8,8,8,,7,7,7,,5/6,5/6,5/6,,5/4,5/4,5/4,,4,4,4,,3,3,3,,2/1,2/1,2/1,,1/8,1/8,1b/8b,,{1}B1,B8,B2,B7,B3,B6,B4,C,
{4}1x,1,1,,2,,2,,3,3,3,,3/4,,,,5,5,5,,6,,6,,7,7,7,,7/8,,,,8bx,8,8,,7,,7,,6,6,6,,5,,5/4,,4,4,4,,3,,3,,2,,1,,1x/8x,1x/8x,1bx/8bx,,
{4}1h[2:1],,,,2,2,1/2,,8h[2:1],,,,7,7,8/7,,1b
E
ADVANCED
(160)
{4},,,,4,4,4,,3,3,3,,2,2,2,,1,1,1,,8,8,8,,7,7,7,,6,6,6,,5/4,,5/4,,5,5,6,6,7,7,7/8,,1,1,2,2,3,3,3/4,,4/5,4/5,4/5,,3/6,3/6,3/6,,2/7,2/7,2/7,,1/8,1bx/8bx,1bx/8bx,,
{4}2h[2:1],,1,,3h[2:1],,4,,6h[2:1],,5,,7,8bx/1bx,8bx/1bx,,7h[2:1],,8,,6h[2:1],,5,,3h[2:1],,4,,2x,2x,2x,,
{4}1-6[4:2],,,,7-4[4:2],,,,2-5[4:2],,,,6,6,6/5,,B7,B6,B5,,B2,B3,B4,,B7,B6,B5,B4,B3,B2,B1,,8-3[4:2],,,,2-5[4:2],,,,7-4[4:2],,,,3,3,3/4,,B2,B3,B4,,B7,B6,B5,,B2,B3,B4,B5,B6,B7,B8,,{2}1h[2:1],8h[2:1],7h[2:1],6h[2:1],5h[2:1],4h[2:1],3,2/1,8h[2:1],1h[2:1],2h[2:1],3h[2:1],4h[2:1],5h[2:1],6,
{4}7x/8x,,1,1,2,2,3/4,3/4,3/4,,5,5,6,6,7/8,7/8,7/8,,1,1,2,2,3,3,4,4,5,5,6,6,7,7,8x/1x,,8,8,7,7,6/5,6/5,6/5,,4,4,3,3,2/1,2/1,2/1,,8,8,7,7,6,6,5,5,4,4,3,3,2,1b/8b,1b/8b,,
{4}1,2,3,4,5,6,7/8,,8,7,6,5,4,3,2/1,,Cf,
E
EXPERT
(160)
{1},{2}1/2h[4:6],1<5[4:3],,,{4}3/6,,3/7,2/6,3h[4:1]/7h[4:1],,,,1/2,,4/5,3/6,2/7,,3,4,5,7h[4:1]/8h[4:1],,4,2xbh[4:1]/6xbh[4:1],,3xbh[4:1]/7xbh[4:1],,5/6,4,2/4,,3/4,5,5/7,,3/5,4,5/7,,4/6,5,2/4,,{8}5/7,,6,6,6,,4/5,,2/4,,3,3,3,,4/5,,5/7,,4/6,,3/5,,2/4,,4bx/5bx,,E5,,B6/B3,,B7/B2,,
{4}8/1h[4:6],,2,3,4,5,6,7,1/8h[1:1],,7,6,5,E5,B6/B3,B7/B2,8/1h[4:6],,2,3,4,5,6,7,8/2,1,8,7s3[2:1],,,,,
{1}3h[2:1]/4V62[2:1],1h[2:1]/2V48[2:1],7h[2:1]/8V26[2:1],6h[2:1]/5V37[2:1],{8}3x/5x,,3/5,,4/6,,4/6,,3/5,,4/6,,8,8,1,,6x/4x,,6/4,,5/3,,5/3,,6/4,,5/3,,1,1,8,,{1}6h[2:1]/5V37[2:1],8h[2:1]/7V51[2:1],2h[2:1]/1V73[2:1],3h[2:1]/4V62[2:1],{8}7x/1x,,7/1,,8/2,,8/2,,7/1,,8/2,,5,5,4,,2x/8x,,2/8,,1/7,,1/7,,2/8,,1/7,,4,4,5,,{16}2h[16:3],,,3h[16:3],,,4,,4,,,,3/5,,,,7h[16:3],,,6h[16:3],,,5,,5,,,,4/6,,,,{4}2p7[16:7],,,,8,1,2/7,,{16}7h[16:3],,,6h[16:3],,,5,,5,,,,4/6,,,,2h[16:3],,,3h[16:3],,,4,,4,,,,3/5,,,,{8}4w8[16:5],,,,,,,2x/6x,2bh[4:1]/6bh[4:1],,,,B7/B8/B1/B2,,,,
{4}5/6,4/3,2/1,8-3[4:1]/7-4[4:1],,,2/5,1/6,7/8,5/6,4/3,1-6[4:1]/2-5[4:1],,,4/7,3/8,2/1,8/7,6/5,4-7[4:1]/3-8[4:1],,,1/6,2/5,3h[4:1]/4,8x,5/6h[4:1],1x,3x^8[4:1]/4x^7[4:1],,,,7/8,1/2,3/4,5-2[4:1]/6-1[4:1],,,3/8,4/7,5/6,7/8,1/2,3-8[4:1]/4-7[4:1],,,1/6,2/5,4/3h[4:1],1,1/2,3/8,5/6h[4:1],8,8/7,1/6,4/3h[4:1],1,2^5[4:1]/1^6[4:1],,,E6,B7/B4,B3/B8,
{4}1/2h[4:1],5,8/7h[4:1],4,1/2h[4:1],4,8/7h[4:1],5,1/2h[4:1],3,8/7h[4:1],6,1/2,4/7,3/8,{8}2-5[8:1]/1-6[8:1],1/2,
E
MASTER
(160)
{1},{8}6h[2:1],,,5,5x,,7^5[4:1]/4^2[4:1]
,,,,,,,,,,3h[2:1],,,4,4,,2,,{4}2h[2:1]/8h[2:1],,,,3h[8:3]/5h[8:3],,3/5,,4h[8:3]/6h[8:3],,4/6,,3/7,3h[4:1]/7h[2:1],,,1h[4:1]/6h[4:1],,1/6,5<1[4:3],4,4,4,4,4/1,4/8,4/7,4>8[4:3]/6,5,5,5,5,5/8,5/1,5/2,5/3,{8}4/6,7,8,1,2,3,4,5,6/4,3,2,1,8,7,3/6,3/6,{16}4,5,4,5,4,5,4,5,3,6,2,7,1,8,1,8,{4}1h[4:3],,3-7[8:1],,
{4}A2/B2f/E2/E3/8bx,6-8[8:1],4xh[4:1],1-4[8:1],3,4xh[4:1]/2xpp8[8:3],,,1x/A6/E7/B6/E6,3-1[8:1],5xh[4:1],8-5[8:1],6,5x/7x,4x-8[8:1]/2xh[4:1],,1bx/A7/E8/E7/B7f,2-4[8:1],8xh[4:1],5-8[8:1],7,6h[4:1]/1xpp6[8:3],,,8x,7/1h[4:1],4,2/6,{12}8,8,8,1,1,1,2^4[8:1]/7^5[8:1],,,,,,
{8}B5/B4,,,7,7^4[8:3],,1,,2h[8:3],,,4,2-4[8:1],,,,5h[8:3],,,4,5-1[8:3],,3,,2h[8:3],,,1,1^4[8:1]*^6[8:1],,,,Cf/B4/A4/B6/A6/B5/E6/E5,,1,2,3/8,7,6/1,2,3/7,6,3-1[8:1]/7-1[8:1],4,,,3x/7x,,6,5,4-2[8:1],3,5-7[8:1],6,4,3,2x/8V26[4:1],,2,3,4-8[8:1],,6b,,1x/7x,,,2,2^5[4:1],,8,,7h[8:3],,,5,7-5[8:1],,,,4h[8:3],,,5,4-8[4:1],,6,,7h[8:3],,,8,8^1-3[8:1]*^7-5[8:1],,,,Cf/A6/E7/B6/E6/A3/E4/B3/E3,,1,1,2/8,3,7/1,5,2/6,1,2^5[8:1]/5^8[8:1],1,,,8x/5x,,4/6,7,2/5,1,8/7,6,1/7-3[8:1],6,2-6[8:1],,5-1[8:1],,4-8[8:1],,5,,{16}1b/7bh[16:3],,,6h[16:3],,,5,,5,,,,3/4,,,,5/2h[16:3],,,3h[16:3],,,{8}4,4,,3/5,2,1h[2:1],,,4,4h[8:3],,,3,3,4q6[2:1],5,,C,,,,{16}7h[16:3],,,6h[16:3],,,5,,2h[16:3],,,3h[16:3],,,4,,6h[16:3],,,7h[16:3],,,8,,3h[16:3],,,2h[16:3],,,{8}1,1,,2x/8x,,1,2,3-5[8:1]/5,,8h[4:1],,C,,{16}7,8,7,8,6,1,5,2,
{8}4b-8-6[4:1],,2/4,3,4>1[8:1],4,7^4[8:1],7,8w4[8:1],,,,2x/6x,1,2/4,3,4/5-1-3[4:1],,5/8,7,6-2[8:1],6,1>7[8:3],1,8,,,,8/7,6,5/2,3,4/7^4-8[4:1],,1/7,2,3^8[8:1],7-4[8:1],3,7,1x,,2/5,3/6,4^7[8:1]/7,,8-4-6-1[8:3],,1x,2,3h[8:3],,8,7,6/1qq2[8:3],2,3,,,,3-8[8:1]/4-8[8:1],,3/4,,5bx-1-3[4:1]/7bx,,5/7,6,5^8[8:1],5,2^5[8:1],2,1w5[8:1],,,,3x/7x,8,7/5,6,4/5pp7[8:1],,5/2,,5/4qq2[8:1],,4/7,,4-8[8:1]/5-1[8:1],,4/5,,2/7,3/6,4/5,6,{16}7/1b,,2,4,3,,4/5,,6-1[8:1],,7,,2/6,,3,,4/8b,,7,5,6,,4/5,,3-8[8:1],,2,,3/7,,6,,5/1b,,2,4,3,,7,5,6,,{8}1/8,2/7,3/6,4-8[8:1]/5-7[8:1],,4b-2[8:1]/5b-1[8:1],,4b-8[8:1]/5b-7[8:1],,{64}4b/5b,Cf,,,,,,,,,,,,,,,{8}1bx/6bx,,3/4,,
{16}4/7h[16:3],,,5,6,,1,,2h[16:3]/5,,,4,3,,{8}8,7/1^4-8[4:1],6,5,6,7-3[8:1],,1/7,,{16}2h[16:3]/5,,,4,3,,8,,7h[16:3]/4,,,5,6,,4/5,,2/6,,,,{8}1-4[8:1]/8b-5[8:1]b,2/7b,Cf,
E
Re:MASTER
最終更新:2026年06月28日 21:56