アットウィキロゴ

にっこり^^調査隊のテーマ

アーティスト ワンダフル☆オポチュニティ! / 初音ミク / ワンダーランズ×ショウタイム「プロジェクトセカイ カラフルステージ! feat. 初音ミク」

BPM BASIC ADVANCED EXPERT MASTER Re:MASTER
180 3 6 10 12+ -

EXPERT MASTER Re:MASTER
譜面制作者 サファ太 はっぴー -

BASIC


ADVANCED


EXPERT


MASTER

(180)
{4}E5,4h[4:1]/5-8[8:1],,1b,2h[4:1]/6h[4:1],,
{8}1/7,6/2,{4}5/3h[4:1],4,6/5V31[4:1],
{8}7,6,{4}5,2/4,3/4-8[8:1],
{8}3,2,{4}1,1>4[8:1]/8<5[8:1],,D8/E8/B8/B1/E2/D2/E1f,,
{4}3xh[4:1],5h[4:1],7h[4:1],1h[4:1],3h[4:1],5,4bx/7bx,5bx/2bx,
{4}1h[8:1]/7h[8:1],8h[8:1]/2h[8:1],1h[8:1]/6h[8:1],7h[8:1]/4h[8:1],5h[8:1]/3h[8:1],
{8}5/4,6,{4}7bxh[8:1]/6bxh[8:1],3bxh[8:1]/2bxh[8:1],
{4}8h[8:1]/2h[8:1],1h[8:1]/7h[8:1],8h[8:1]/3h[8:1],
{4}5h[8:1]/2h[8:1],4h[8:1]/6h[8:1],5/4,8bx/4bx,
{4}8bxqq5[2:1]/4bxqq1[2:1],,,,6>5p4>3[2:1],E5f,,,8x/1x,3/6,1b,
{16}2,4,2,4,{4}2h[4:1],5pp8[2:1],4,3,
{8}2,2,8,8,1>4[8:1],1,5,,B7/B6/A7/D7/A6/E7,,1x-5[8:1],1x,7-3[8:1],7,2-6[8:1],2,
{4}8b,7h[8:1]/4h[8:1],5h[8:1]/2h[8:1],4h[8:1]/6h[8:1],
{4}5/3,4/6-8[8:1],5,5/3-1[8:1],4,2/4,
{8}3/5,2/6,6/2-6[8:1],,7,8b,1-5[8:1]/8b<5[8:1],,,,
{8}4bx/6bx,6bxh[8:1]/4bxh[8:1],,,8/7,,4/5-8[8:1],4/5,
{4}3h[4:1],8bx,6/5-1>4[4:1]*-1<6[4:1],,,
{8}7/3,2,2x/6x,,
{16}8,4,8,4,{4}8h[4:1],6xp2[4:1],7,5,3/4-8[8:1]b,4b/2b,
{4}2h[4:1]/1h[4:1],,3-8[8:1]/4-7[8:1],,2h[2:1]/6>3[8:1],6,1,1-5[8:1]/8-4[8:1],8b/1b,
{4}D7/E7/A6,B5/B4/E5,E3/D3/A3,
{8}8b/2h[4:1],8b,8b<3[4:1]b,,,,,,,2/4,2/4,,7/5,7/5,,1/6,
{4}1h[8:1]/6h[8:1],1h[8:1]/6h[8:1],6h[8:1]/1h[8:1],8/5,
{4}2>5[8:1],5,7b/3b,1b,8h[8:1]/2h[8:1],3h[8:1]/7h[8:1],8h[8:1]/2h[8:1],7/3,
{8}1p5[4:1]*<6[4:1],1,
{4},,7b/3b,6h[8:1]/2h[8:1],7h[8:1]/3h[8:1],6h[8:1]/2h[8:1],7h[8:1]/3h[8:1],
{8}6pp7[4:1]/4qq3[4:1],6/4,
{4},,7b/3b,4/6h[4:1],8p3[4:1],2x,1x,2/4,4>1[8:1]b/5<8[8:1]b,5bx/4bx,8bx/1bx,
{4}4/3,4/3,2h[4:1]/8h[4:1],,6/5,6<1[4:1]/5>2[4:1],,,3/4,5/6,
{8}4/5,5<7[8:1]/4>2[8:1],,,,7x,
{4}7x>2v4[8:3],4,5,5x-1[8:1],6,6,1-5[8:1]/7-3[8:1],,2>5[8:1]/1<6[8:1],,
{8}7/4,4/7h[4:1],,8,,5/2h[4:1],,1,,B6/B5/B4/B3,,D8/E8/A7/D2/A2/E2,,1b/8b,
{4}8b/1b,7x<4[8:1]/8x>3[8:1],8/7,2x>5[8:1]/1x<6[8:1],1/2,
{4}8/2pp5[8:3],8,6,8bxh[4:1]/4bxh[4:1],,7/5-1[8:1],6/5,2/4-8[8:1],3/4,
{4}4h[8:1]/6h[8:1],8b/2b,4h[8:1]/6h[8:1],8b/2b,
{4}3/5<7[8:1],4,7x/3h[4:1],4v2V86[8:3],3,3,4,
{8}6/5,5q4[8:3]/6<3[8:3],{4},,,1xh[8:1]/2xh[8:1],8xh[8:1]/7xh[8:1],5/4,
{8}6/3,5-8[8:1]/4-2[8:1],,5x/4x,,1,
{4}1,2/5h[4:1],8-2[8:1],6,7/8>3[8:1],
{8}6,6,,5/4>1[8:1],,6,
{4}6V42[4:1],1,1-4[8:1],1x,6x<1[8:1]b/5xv2[8:1]b,
{8}A6/E6f/A5,,,2x,
{4}3-1[8:1]/4-8[8:1],4/3,3-1[8:1]/4-8[8:1],4/3,
{4}6-8[8:1]/5-1[8:1],5/6,6-8[8:1]/5-1[8:1],5/6,
{4}4h[8:1]/6h[8:1],8h[8:1]/2h[8:1],4h[8:1]/6h[8:1],8h[8:1]/2h[8:1],
{4}7/3,5/6h[4:1],A2/E3f/D3/A3,8b,
{8}8h[4:1]/1h[4:1],,,7x/3x,,6x/2xpp5[8:3],,5,,7,,8h[4:1],,5,5>6[2:1],,Cf,,
{4},,{8}8x/1x,1x/8x,,4/6,,7b/3b,7b/3b,,8b,,1pp1[4:1],,,,8qq8[4:1],,,,
{4}E2/D2/A2,A7/D8/E8,B3/B4/B5/B6,1x/8x,
{4}2h[4:1],4h[4:1],5h[4:1],7qq4[8:3],4,3,2,
{4}1b/6<8[8:1],5-1[8:1],6-8[8:1],3,2>4[8:1],1-5[8:1],2-4[8:1],6,
{4}6<1[4:1],1>4[4:1],4<7[4:1],7,2,2,1w5[4:1],,,
{4}A7/D7/A6/E7/B6/E6,,E2/D2/A2/E3/E4,
{4}8xp3[8:1]/7x<4[8:1],8/7,1xq6[8:1]/2x>5[8:1],1/2,
{4}8/2pp5[8:3]b,8,6,4bxh[4:1]/8bxh[4:1],,7/5>1[8:1],6,2/4<8[8:1],3,
{4}4h[8:1]/6h[8:1],2b/8b,4h[8:1]/6h[8:1],
{4}2bxpp5[8:3]/8bqq5[8:3],,,7x/3x,6/5-2[8:1],7,6/4-1[8:1],7,
{8}5/6,6<3[4:1]/5q4[4:1],,,,,,2x,2x,4h[4:1],,6,6h[4:1],,4x,4x,,2b,
{4}3b-1[8:1]/4b-8[8:1],4/3,
{4}5-8[8:1]/4-1[8:1],5/4,6-8[8:1]/5-1[8:1],6/5,5-8[8:1]/4-1[8:1],5/4,
{4}4h[8:1]/6h[8:1],8h[8:1]/2h[8:1],6h[8:1]/4h[8:1],8h[8:1]/2h[8:1],7/3h[4:1],
{4}5,A8/D8/A7/E8f,1b,
{8}1h[4:1]/8h[4:1],,,3x/7x,,6x/2xpp5[8:3],,5,,7,,8h[4:1],,5,
{4}5>1[4:1],1<5[4:1],5,1,
{8}7x/3x,7-5[8:1]/3-5[8:1],,7/3,,8b/3b,8b/3b,
E

Re:MASTER


名前:
コメント:

タグ:

+ タグ編集
  • タグ:
最終更新:2026年04月05日 00:47