| アーティスト |
とあ / MEIKO / 25時、ナイトコードで。「プロジェクトセカイ カラフルステージ! feat. 初音ミク」 |
BASIC
ADVANCED
EXPERT
(171)
{1}3/5pp6[1:1],,6/4qq3[1:1],,
{2}3-7[8:5]/4v6[8:5],,,5/6,4/6q3[8:5],,,3/4,4/2V46[8:5],,,6,
{4}5/7,5/7>4[4:3]*q5[4:3],,,,,,,,4,5/3h[4:5],,E4,E5,E6,E7,,5,4/6h[4:5],,E6,E5,E4,E3,,3,4/2h[4:5],,E2,B3,B4,E6,,6,5/7h[2:3],,B7,E6,E4,B2,C,,
{2}2qq5[4:5],,,6qq1[4:5],,,2q4[1:1],,,
{4}5,5,3qq4[1:1]/5pp4[1:1],,,,,,,4,1b/7b<4[4:1],,
{2}3>8[4:1],7qq1[2:1],,
{4}2h[4:1],4h[4:1],5h[4:1],7,7h[4:1],5h[4:1],4h[4:1],2,2,
{8}2,4,3,,6,6,5,,
{4}5/7,4/6,3/5,
{8}2h[4:1]/4h[4:1],,,3/5,5/3h[4:5],,,
{4}4,2,1,
{8}8,8,,
{4}5/7,6,3/5,4,5/6,5/6,4/7,2/4,2/4,3,4/6,5,3/4,3/4,2/5,,5/6,7,1/8,2,3/4,2,1/8,2/7,3qq5[8:11]/6pp4[8:11]{1},,
{2}3p5[8:5],,,7b<3[4:3]b,,,2s6[8:7],,,8<6v4[4:3],,,2>6[4:3],,,8<3[4:3],,,
{4}1w5[4:3],,,,,4/5,3/6>3[4:3],,,,,,3h[4:5],5,5,4,4,5,6h[1:1],4,4,5,5,4/5,2h[1:1],4,4,3,3,4/5,7h[8:11],5,5,4,4,
{8}3,3,,,,4bh[8:5]/6bh[8:5],,,,,,,5/6,,5/6,,,4x/5x,,,
{4}3bh[2:1]/4bh[2:1],,,
{8}3h[8:3],,,4h[8:3],,,5h[8:3],,,6h[8:3],,,7h[8:3],,,8h[8:3],,,
{4}1,1,2/8,3/7,4/6,,,,,,
{1}D4,A4,D5,A5,
{4}D6,,,,,5,8b/2b>5[8:3],,
{2}6<1[4:1],2pp8[2:1],,
{4}6h[4:1],8h[4:1],1h[4:1],3,3h[4:1],1h[4:1],8h[4:1],6,
{8}6,6,5,5,7,,2,2,1,,
{4}1/3,2/8,1/7,
{8}6h[4:1]/8h[4:1],,,1/7,1/7h[4:5],,,
{4}8,6,5,
{8}4,4,,
{4}2/8,1,1/7,8,1/2,1/2,4/7,,1/7,8,2/8,1,7/8,7/8,2/5,,7/8,6,4/5,3,1/2,3,4/5,6,
{8}7h[4:1]/8h[4:1],,,1/6,1/6h[2:1],,,,
{2}8h[2:1],1h[2:1],3h[2:1],
{8}6,,,2/7,2<5[1:1]/7>4[1:1],,
E
MASTER
(171)
{8}6h[8:7],{4},,5,4q5[8:5],,,,{8},3h[8:7],{4},,4,5p4[8:5],,,,
{8},6h[8:13],,,4-8-3-5[4:3],,{4},,,,
{8}5,4,3,2h[8:7],{4},,3,4,5h[4:1],
{8}2,3,4,5,6,7h[8:7],{4},,6,5,4h[4:1],5,,
{8}5,4/6h[4:1],,4,5/3h[4:1],,5,,2/6,,1/7,1h[8:7]/7h[8:7],,{4},,,,
{24}5/7h[8:1],,,D5,A4,D4,A3,,,
{8}6h[4:1],,3qq8[4:2],,7,,6,,5,5,,4/6,,
{24}4/2h[8:1],,,D5,A5,D6,A6,,,
{8}3h[4:1],,6pp1[4:2],,2,,3,,4,4,,3/5,,
{24}5/7h[8:1],,,D5,A4,D4,A3,,,
{8}6h[4:1],,4v2<8[4:2],,7,,6,,5,5,,4/6,,
{24}4/3h[8:1],,,D5,A5,D6,A6,,,
{8}2h[4:1],,6,,1/5,1<7-2[4:2]/5>3-6[4:2],,,,,,,,
{8}6h[4:3],,E6,B6,,E8,B8,,E2,,B3,,7>2[4:1],,3,3<6[4:1],,7,7h[4:1],,E8,,E2,,
{8}6h[8:3],,5,5h[8:3],,4,4h[4:1],,
{4}3qq4[4:2],4,5,6,3h[8:3]/5h[8:3],,2<6[4:2]/4pp6[4:2],,,,
{8},1/6,8-3[8:1]/7-4[8:1],,7b/8b,,1/6,1/6,,2/7,,3/8,
{4}3hx[4:1]/8-5[8:1],8,4hx[4:1]/8-3[8:1],8,
{4}3hx[4:1]/8<5[8:1],8,4hx[4:1]/8>3[8:1],8,3hx[4:3]/8<6p5[4:2],,,,
{8}6,5,4,3,2/5,,5,6,
{4}4/7-4[8:1],2-5[8:1],6-1[8:1],3-8[8:1],7h[8:3],
{8},6<2v4[4:2],6,,,5,,7,,1,,3/4,3/4,7/8,7/8h[8:3],,1,1h[4:1],,2,,
{8}1h[4:1]/3h[4:1],,,2-5[8:1]/4-7[8:1],,2b/4b,,,1/2,1h[8:3]/2,,8,8h[4:1],,7,,
{8}6/8,,5/7,5-2[8:1]/7-4[8:1],,5b/7b,,,,
{4}2/8-5[8:1],8-3[8:1],8,
{8}4,4-1[8:1]*-7[8:1],,4b,,8x,8x,,3/8,,1qq6[4:2]/2pp5[4:2],,
{4},,,8h[4:2],,3h[4:2],,2,
{4}2<5[4:4],,3,3,,4,4h[4:2],,6,6h[4:2],,7,
{4}7>4[4:4],,6,6,,5,5h[4:2],,2,2h[4:1],4,
{4}4h[8:3]/3-5[8:1],,
{8},3,3,,4,,5,,6/5-3[8:1]*-7[8:1],,,,,8,8,,
{4}7,6>3[4:3],,,,,,1,2,
{8}3,3-6[8:5]*<6[8:5],{4},,,,
{8}5h[8:3],,,6h[8:3],,,7h[8:3],,,8h[8:3],,,1h[8:3],,,2h[8:3],,,3h[8:3],,,4h[8:3],,,5h[8:3],,
{8}6,6h[8:3],,7,7h[8:3],,8,8h[8:3],,1,1h[8:3],,2,2h[8:3],,3,3,,
{4}3/4,4/5,5/6h[8:3],
{24},,,D5,A4,D4,A3,D3,A2,D2,A1,D1,A8,D8,A7,D7,A6,D6,A5,,,,,,
{8}5/6,,4/5,,,4/3h[8:3],,,
{24}A6,D7,A7,D8,A8,D1,A1,D2,A2,D3,A3,D4,A4,,,,,,
{8}2hx[8:3],,,3,,,7hx[8:3],,,6,,,2hx[8:3],,,3,,,6hx[4:3],,
{4}5,4,3,E5,,,,
{4}5h[4:14],,
{32}B4,E5,,,,,,,{4},,,{32}B5,E5,,,,,,,{4},,,{32}B4,E5,,,,,,,{4},,,{32}B5,E5,,,,,,,{4},
{4}3h[4:4],,
{32}B5,E5,,,,,,,{4},{32}B5,E5,,,,,,,{8},,,
{16}3/8,,1-5[8:1]/2-6[8:1],,,,1b/2b,Cf,,,
{8}3/8,3h[4:1]/8,,6h[8:3],,8,
{8}8>3[8:1],,6/8,7,8<5[8:1],,3/8,2,1V35[8:1],,1/7,8,1V75[8:1],,1/3,2,1>3q4[4:2],,
{8}6h[4:2],,,,,,6,7,8,1,2-4[8:1],,1,8,
{4}7-4[8:1],2-5[8:1],6-1[8:1],3-8[8:1],7h[8:3],
{8},6<2v4[4:2],6,,,5,,7,,1,,3/4,3/4,
{8}5/7,5/7h[8:3],,6,6p2[8:1],,6/8,,1h[4:1]/7h[4:1],,,
{4}6-2[8:1]/8-4[8:1],6b/8b,
{8},2/4,2h[8:3]/4,,3,3q7[8:1],,1/3,,2/8,,1/3,
{4}1-5[8:1]/3-7[8:1],1b/3b,,2/8<5[8:1],8>3[8:1],8,
{8}4,4>1[8:1]*<7[8:1],,4b,,8x,8x,,
{4}3/8,1qq6[4:2]b/2pp5[4:2]b,,,,7qq4[4:2]b/8pp3[4:2]b,,,,
{4}5/6,3/4,1/2,8>3[4:3]/7<4<7[4:6],
E
Re:MASTER
最終更新:2026年06月27日 13:15