アットウィキロゴ

アンハッピーリフレイン(創作譜面:白狼)

曲名 アンハッピーリフレイン
制作者名 白狼
音源 http://www.nicovideo.jp/watch/sm22751443
譜面動画
制作者コメント 遅くなりました!
BPM EASY BASIC ADVANCED EXPERT MASTER
205 - - - - 12

EASY


BASIC


ADVANCED


EXPERT


MASTER

(205){8}3h[8:7],,2,2,,2,2h[8:7],,1,,1,1,,1,1h[8:7],,8,,8,8,,8,8h[8:7],,7,,7,7,,7,7h[8:7],,5,,5,5,,5,5h[8:7],,3,,3,3,,3,3h[8:7],,1,,1,1,,1,1h[8:7],,7,,7,7,,7,27,,
35,,17,17,,35,35,,28,,46,46,,28,28,,15,,37,37,,15,15,,26,,48,48,,26,26,26,12,,34,34,,56,56,,78,,56,56,,34,34,,24,,28,28,,68,68,,24,,46,46,,68,68,,,
{4}7-4[4:15]/8-3[4:3],,,,8-4[4:3],,,,8-5[4:3],,,,3-8[4:1],8-5[4:1],,{8},2,1,2,3,4,3,2,,3,2,3,4,5,4,3,,7,8,7,6,5,6,7,,6,7,6,5,4,5,6,{16}4,3,4,3,
{4}4-7[8:1],,5-2[8:1],,3-8[8:1], ,6-1[8:1],,8^5[8:1],,1^4[8:1],,5^8[8:1],,1^4[8:1],,5-2[8:1],1-6[8:1],8-3[8:1],4-7[8:1],1^4[8:1],1-4[8:1],8^3[8:1],8-5[8:1],
1-5[8:1],,2-6[8:1],,1-5[8:1],2-6[8:1],3-7[8:1],{16}7,8,1,2,
{4}2-5[8:1]/6-1[8:1],2-7[8:1]/6-3[8:1],6b/2-6[8:1],{8}2h[4:1],7,,6,5,4,5,,
5^2[4:1],,7,8,1^4[4:1],8,,6,5^2[4:1],6h[4:1],,,18,,45,,,,
1-4[16:1],,4-1[16:1],,8,7,6,2h[8:5],,5,6,7,6,,
2-6[8:1]/3-7[8:1],14,23,,67,6h[8:1]/7h[8:3],,8,2h[4:1],7,,,
7b/8b,,3b/4b,,,,
8^5[4:1],,5,5-1[4:1],,1,1^4[4:1],,4,4-8[4:1],,8,8^5[8:1],,5^8[8:1],,8^3[4:1],,3,3-7[4:1],,7,7^4[4:1],,4,4-8[4:1],,8,8^3[16:1],,3^8[16:1],,
6,{16}6,7,6,,{8}6,5,4,3,8h[4:1]/3,2^7[16:1],3,7^2[16:1],,,,
4-8[8:1]/5-1[8:1],36,,,2-7[8:1],2h[8:1],,2-5[8:1],4-7[8:1],6-1[8:1],,4-1[8:1],1-5[8:1],5-8[4:1],8-4[16:1],,,,
15,,,26,,,37,48,15,,,37,,,8^5[8:1],7^4[8:1],,,8^5[16:3],6^3[16:3],,,
1^4[8:1],4^7[8:1],,,8^5[4:1],4^1[8:3],,,4b,,
14,,,47,,,27,25,58,,,38,,,
3-6[8:1],6-2[8:1],3h[4:1],,7-2[8:1],2-6[8:1],7h[4:1],,
5-1[8:1],1-4[8:1],5h[4:1],,15,1-4[16:1]/5-8[16:1],,4-1[16:1]/8-5[16:1],,1b/5b,
58,,,14,,,65,23,65,,,23,,,
2-6[8:1],1-4[8:1],,,2-6[8:1],8-3[8:1],,,6-2[8:1],7-2[8:1],,,{4}1-4[4:1]/8b,1b/8-5[4:1],
4^1[4:1],5^8[4:1],1-5[4:1],8-4[4:1],5^8[4:1],4^1[4:1],8-5[4:1],1-4[8:1],1b/8b,
{8}18,,17,,27,26,,37,,48,26,48,26,,
1-4[8:1],,7,6,,5-8[8:1],4,3,,7,7-3[8:1],7,7-4[8:1]/3b,,7b,,
1,2,3,{16}3,4,3h[8:1],,5h[8:1],,7h[8:1],,5h[8:1],,,,{8}1^4[8:1],4^7[8:1],7^2[8:1],2^5[8:1],5^8[8:1],8^3[8:1],,6b,
1,2,3,,8,7,6,,1-5[8:1],2-6[8:1],3-7[8:1],4-8[8:1],4^1[8:1],4^7[8:1],,,,
8,{16}8,1,8h[8:1],,{8}6h[8:1],8h[8:1],2h[8:1],,2h[4:1]/8,,8-5[8:1]/1,2,3,4,,
3,3,3-8[8:1],3-6[8:1],,3,3-7[8:1],3,,3^6[8:1],3^8[8:1],3,3-7[8:1],,3b,,
1^6[4:1],3,5^8[4:1],3,1^4[4:1],7,5^2[4:1],7,,5h[4:1],,6h[8:1],8h[8:1],2h[8:1],8h[8:1],,7b,
2-6[8:1]/3-7[8:1],14,23,,6-2[8:1]/7-3[8:1],58,67,,6^1[8:1],1-5[8:1],5-1[8:1],1-4[4:1]/5-8[4:1],,1b/5b,,,,
{16}4,,4,6,4,,7,5,7,,7,,,,{8}23,,23,45,67,81,,,
4-1[8:5]/5-8[8:5],67,81,23,45,81,,,
8-5[8:5]/1-4[8:5],67,45,23,,18,,,
1-4[8:5]/5-8[8:5],26,26,37,48,15,,,
8-4[8:5]/5-1[8:5],14,36,27,27,85,,,
3,7,3,18,,3h[8:1]/6h[8:3],,2h[8:11],,7h[8:9],,,,,,,,,,,,,E


名前:
コメント:

タグ:

+ タグ編集
  • タグ:
最終更新:2023年08月07日 22:13