|
EXPERT |
MASTER |
Re:MASTER |
| 譜面制作者 |
小鳥遊さん |
The ALiEN |
- |
BASIC
ADVANCED
EXPERT
MASTER
(234)
{24}1b,28,3qq5[4:14]/7qq1[4:14],46,5,,,,,,,,,,,{2},,,,,,,
{4}34,34,{8}5/2h[4:1],,1,1h[4:1],,3,3h[4:1],,{4}4,25,
{4}6,56,{8}4/7h[4:1],,8,8h[4:1],,6,6h[4:1],,
{16}1,2,3,4,8,7,6,5,
{4}2b-4[8:1],7-5[8:1],1-3[8:1],{8}6,6,
{4}4-2[8:1],5-7[8:1],3-1[8:1],{8}6,6,
{4}2-4[8:1],7-5[8:1],1-3[8:1],{8}6,6,
{4}47,25,{8}4,4,5,5,3b/6b,,
5h[16:1],5h[16:1],5h[16:1],5h[16:1],5h[16:1],5h[16:1],
4h[16:1]/5h[16:1],4h[16:1]/5h[16:1],3h[16:1]/6h[16:1],3x/6x,,45,4/5<4[8:3],,
{4}Cf,,,{4}1,3q6[4:1],,,2b/7b,
{8}5,5,2,2,{16}4h[16:3],,,1h[16:3],,,8h[8:1],,
{8}4,4,7,7,{16}5h[16:3],,,8h[16:3],,,1h[8:1],,
{8}5,5,2,2,{16}4h[16:3],,,1h[16:3],,,8,,
{8}4,4,7,7,26,26,15,15,1b/5b,,
{16}3,4,3,,6,5,6,,3,4,3,,5,4,5,4,5,,
{8}3x/6x,,1,8,7,2b/6b,{8}2b-5[4:1]/6b-1[4:1],,,,,,,
{12}B6,E6,,E2,B2,,E8,B7,,B3,E4,,
{4}6x,6,4,4,5,5,3,{12}3h[6:1],,4,{4}3,3,5,5,4,4,6,{12}6h[6:1],,5,{4}6,
45,{12}3h[6:1],,4,3,,,6h[6:1],,5,6,,,3h[6:1],,4,3,,,
45,,5,4,,4,5,,5,{4}4h[4:1],5,36,27,,
{12}3b/5b,,3,5,,5,4,,4,6,,6,3,,3,5,,5,4,,4,6,,6,2,,2,4,,4,5,,5,7,,7,1,,1,8,,8,2,,2,7,,,
{4}5b/6h[2:1],7V51[4:1],,8,4b/3h[2:1],2V48[4:1],,1,{8}2b/7b,,6,6,2,2,7,7,
{16}1,8,1,8,1,8,1,8,1,8,1,8,1,8,1,8,
1b,2,3,4,5,6,7,8,1,2,3,4,5,6,7,8,1,2,3,4,5,6,7,8,1,2,3,4,5,6,7,8,
{4}1b-5[8:1]/5b,,{8}6,6,2x,2x,
E6/B5,E2/B2,E8/B7,B4/E4,Ch[4:1],,1b,,
8z4[4:1],8,,3,3,,{4}2>8[8:3],5hx[2:1],,,
{8}1,1,{2}2bv5[8:1]/8bv5[8:1],{16}4h[8:1]/7h[8:1],,,2h[8:1]/5h[8:1],,,
6^1[8:1]/3,,,,{24}61,2,3,4p2[4:1],,,{8},Cf,,,,
7x-4[8:1],,3-8[8:1],,6V84[4:1],,3,3,,26,26,,3-8[8:1]/7-4[8:1],,3x/7x,,
1b/5b,,26,,3,3,7x,7x,
B4/E4,B7/E8,E2/B2,B5/E6,Ch[4:1],,8b,,
1s5[4:1],1,,6,6,,{4}7<1[8:3],4hx[2:1],,,
{8}6,6,{2}3b-8[8:1]/7b-4[8:1],{16}1h[8:1]/5h[8:1],,,2h[8:1]/6h[8:1],,,
3^8[8:1]/7,,,,{24}83,7,6,5q7[4:1],,,{8},Cf,,,,
{16}2x-5[16:1],,,7x-4[16:1],,,1x-5[16:1],,,8x-4[16:1],,,2x,,2x,,
3x-8[16:1],,,6x-1[16:1],,,4x-8[16:1],,,5x-1[16:1],,,3x,,3x,,
{8}Cf,,18,18,,3,4,5,6,,78,78,,56,,4/7h[8:3],,,
{16}2,3,4,5,8,7,6,5,1,2,3,4,7,6,5,4,3,2,1,8,72,3,4,5,6,7,8,1,{4}26,37,
{16}8,7,6,5,8,1,2,3,{4}48,26,{16}1,2,3,4,1,8,7,6,
{4}1-3[8:1]/5-7[8:1],15,4-2[8:1]/8-6[8:1],48,15,{8}37,3h[4:1]/7h[4:1],,,C,,
{16}26,,,1,1h[4:1],,3,4,5,6,7,8,1,2,3,4,{8}51,,47,47,,25,25,,
{16}37,,,8,8h[4:1],,6,5,4,3,2,1,8,7,6,5,{8}48,,25,25,,47,47,,
{16}26,,,5,5h[4:1],,7,8,1,2,3,4,5,6,7,8,{8}15,,38,38,,26,26,,
{4}5h[16:3]/7h[16:3],2h[16:3]/4h[16:3],7h[16:3]/8h[16:3],15,
{12}2b,4,3,7,5,6,1b,,,8<1[8:3],,,{1}Cf,
{12}2,,2,8,,8,1,,1,7,,7,2,,2,8,,8,1,,1,7,,7,3,,3,1,,1,8,,8,6,,6,5,,5,8,,8,
5,7,4,6,3,5,4w8[8:1],,,4b,,,5w1[8:1],,,5b,,,
3,4,3,2b/5b,,,47,,,1b/8b,,,
27,,2,4,,4,5,,5,7,,7,1w5[8:1],,,1,,,3b/7b,,,,,,
7,,7,2-6[8:1],,2,5-8[8:1],,5,1-4[8:1],,1,
7-3[8:1],,7,5-2[8:1],,5,8-3[8:1],,8,1-6[8:1],,1,
4-8[8:1],,4,2-5[8:1],,2,6-1[8:1],,6,3-8[8:1],,3,
7-4[8:1],,7,2,,2,8,8,1,2b/7b,,,
{16}8,5,8,5,8,5,8,5,8,5,8,5,{4}7b,
{16}1,4,1,4,1,4,1,4,1,4,1,4,{8}2b-6[8:1],,{32}2x/6x,Cf,,,,,,,
{8}7,7,1,1,6,6,3,3,2x/6x,,1b/7b,,
{16}8,8,8,8,8,8,8,8,8,8,
8h[1280:1],8h[1280:1],8h[1280:1],8h[1280:1],8h[1280:1],
8h[1280:1],8h[1280:1],8h[1280:1],8h[1280:1],8h[1280:1],
8b,7,6,5,4,3,2,1,8,7,6,5,4,3,2,1,{1}8hx[4:7]/4hx[4:3],{4},E6,E5,E4,
{8}1b/2b,8/3h[8:5],,,,,4,,56,4/7h[8:5],,,,,8,,12,8/3h[8:5],,,,,4,,
26,26,,,35,,46,,2b/5b,25,,47,47,,16,16,,38,38,,{16}2h[8:1]/4h[8:1],,,5h[8:1]/7h[8:1],,,36,,
{8}1b/2b,B5/B6/E7,,7x/8x,E3/B3/B4,,1x/8x,2x/7x,,36,,47,
{16}4h[8:1]/7h[8:1],,,2h[8:1]/5h[8:1],,,4b/8b,,,,,,
7,6,2,3,8,7,1,2,7,6,2,3,8x,7,6,5,7x,6,5,4,6x,5,4,3,5x,4,3,2,1x/5x,,,,
2,3,7,6,1,2,8,7,2,3,7,6,1x,2,3,4,2x,3,4,5,3x,4,5,6,4x,5,6,7,4b/8b,,,,
6x,5x,6x,5x,6x,5x,6x,5x,8x,,,,2b/7b,,,,3x,4x,3x,4x,3x,4x,3x,4x,1x,,,,
4b/7b,,6,5,6,,7,,3,4,3,,2,,5,,3b/6b,,7,8,7,,6,,2,1,2,,3,,8,,
{24}3b,4,5,6,7,8,1,2,3,4,5,6,7,8,1,2,3,4,5,6,7,8,1,2,
{32}8b/3x,7,6,5,4,3,2,1,8,7,6,5,4,3,2,1,8,7,6,5,4,3,2,1,8,7,6,5,4,3,2,1,{1}8b/4b,,,,
{4}5/6h[2:1],,{16}B6/B7,,,,,,{8}45,,,{4}3h[4:1]/4,B2/B3,45,
6,6,3,3,{8}5,5,4,4,6,6,3,3,
2b/7b-4[8:1],7,7/2-5[8:1],2,2/6-1[8:1],6,63,3,{16}27,,
3,4,3,4,3,,7,,6,5,6,5,6,,
{8}7/2b-5[8:1],2,2/7-4[8:1],7,7/3-8[8:1],3,36,6,{16}27,,
6,5,6,5,6,,2,,3,4,3,4,3,,
{32}2h[8:1],,,,8,7,6,5,1b,,,,7,6,5,4,1b,,,,8,7,6,5,1b,,,,7,6,5,4,
{12}2b,2,2,7,7,7,5,5,5,
{32}4b,3,2,1,84,73,62,51,{2}4b/8b,
{16}26,,,,8-4[8:1],1,7,2,{32}8b,{1}Cf,,,,E
Re:MASTER
最終更新:2021年04月18日 00:05