| アーティスト |
Giga / 鏡音リン・レン / Vivid BAD SQUAD「プロジェクトセカイ カラフルステージ! feat. 初音ミク」 |
BASIC
ADVANCED
EXPERT
MASTER
(160)
{4}4b/5b^8[4:3],Ch[4:3],,,,{8},8,18,,27,,
{2}4b^1[4:3]/5b,B6/B7/E7,{8}8h[8:3],,1,1,,47,,35,
{4}3x-5[8:1]/5x,C,1/7-1[8:1],C,2-6[8:1]/6,7-3[8:1],{8}1,1,24,3,
6,57,3,24,{4}5<4[4:3],Cf,,,,45,
{8}46,8x,57,8x,46,8x,57,8x,4-1[8:1]/5,3,4/5-7[8:1],6,35,1,2b/6b,,
46,8x,57,8x,46,8x,57,8x,4-1[8:1]/5,3,4/5-7[8:1],6,35,1,2b/6b,,
56,4,35,2,35,4,56,7,3/6^3[8:1],2,36,2,1x/7x,,45,6,
{16}3x-8[8:1]/7,,,4,3,,5,,2/7x-4[8:1],,,8,7,,1,,
2x-5[8:1]/4,,,8,2,,7,,{4}4x^1[8:1]/6x,Cf,
{8}78,6,5-2[8:1]/7,6,8-4[8:1],,1h[4:1],,3,4,5,6^3[8:1]/8,,1,1,2,
35,{16}6,5,7,,3,4,{8}2,12,38,7,5/6hx[4:1],,8-4[8:1],1-5[8:1],8b,1b,,6,
4h[4:1]/7^4[8:1],8,7,,2h[4:1],,1b,3,2^5[8:1]/5h[4:1],1,2,,7h[4:1],,8b,1,
12,8,78,1,12,3,4/5s1[2:1],6,{4}7x,,7-3[8:1],1b,
2h[1:1],4,,4,6h[1:1],5,,5,3h[1:1],E3/E4,,E5/E6,6h[4:3],E6/E7,,4,
3x/4xq2[2:1],E3/E4,,3,5p7[2:1]/6,E6/E7,,
6,5/6h[4:1],5,2/4h[4:1],2<6[4:1],6<2[4:1],4x,{8},7,37,,
{2}2xh[4:1]/4h[4:1],5h[4:1]/7hx[4:1],
{4}8-4[4:1],4>8[4:1],8<4[4:1],4>4[2:1],Cf,,,4x/8v5[8:1]*-6[8:1],
8-2[8:1]*v3[8:1],8,{8}45,6,1-3[8:1]*v4[8:1]/7,8,
{4}1v6[8:1]*-7[8:1],1,{8}45,3,2-5[8:1]/8,7,
6^1[8:1],,1,2,3x/8x,{16}6,5,{8}6,4/7-3[8:1],,17,{4}1v4[8:1]*v6[8:1],1,2b/8b,
4xw8[8:1],4,{8}2v4[8:1]/6v8[8:1],15,{4},3x-8[8:1]/7x-4[8:1],37,{8}1b/5b,6,47,3,
2-6[8:1]/5-8[8:1],1,2b/5x,,4/7-3[8:1],8,3x/7b,1hx[4:1],,8,2-5[8:1]/7-4[8:1],,2b/7b,,
16,27,3/8bV64[8:1],,4,3,1bV35[8:1],,3,6,7bV53[8:1],,5,2,1bV35[8:1],,3,6,
8bz4[4:1],,5,3,1hx[4:1],,7,18,{24}2x,3,4,8x,7,6,{4}1b/5b,3-7[8:1]/7-3[8:1],C,
{8}1^4[8:1]/6x,7,18,7,5x/6^1[8:1],4,36,2,24,3,45,6,57,46,3<8[4:1]/5,2,
{2}1x,{8}3/8x,2,16,7,38,16,47,25,
{4}1b-5[8:1]/8,1b^4[8:1]*^6[8:1],1b,B4/B5/B6/Cf/E4/E5/E6/E7,
1^4[8:1],B3/B4,8^5[8:1],B5/B6,1-5[8:1],5w1[8:1],,3b/7b,
{8}2-4[8:1]/6-1[8:1],1,,,3-8[8:1]/7-5[8:1],8,,,1-5[8:1],,1b/4b,,
3-1[8:1]/4x,2x,3/4-8[8:1],5x,3-1[8:1]/4,2x,34,5x,
5/6-8[8:1],7x,5-1[8:1]/6,4x,5/6-8[8:1],7x,56,4x,
34,2,56,7,35,1,46,8,1-5[8:1],7-3[8:1],1,7,2^5[8:1]*^7[8:1],,2b,,
{4}Chf[4:7],,,,,,,B1/B8`E3`E7,
{1},,,,,,
E
Re:MASTER
最終更新:2026年04月05日 00:55