アットウィキロゴ

自傷無色

アーティスト ササノマリイ / 初音ミク / 25時、ナイトコードで。「プロジェクトセカイ カラフルステージ! feat. 初音ミク」

BPM BASIC ADVANCED EXPERT MASTER Re:MASTER
120 2 5 9 12+ -

EXPERT MASTER Re:MASTER
譜面制作者 Jack はっぴー -

BASIC


ADVANCED


EXPERT

(120)
{4}5h[4:1],2^5[4:1],6h[4:1],,7h[4:1],6h[4:1],5h[4:1],4,
3h[4:1],6^3[4:1],2h[4:1],,6h[4:1],3^6[4:1],7h[4:1],,
4h[4:1],7^4[4:1],3h[4:1],,2h[4:1],3h[4:1],4h[4:1],5,
6h[4:1],3^6[4:1],7h[4:1],,3h[4:1],6^3[4:1],2h[4:1],,
5h[2:1],,6h[1:1],,E8,E5,E2,,4h[2:1],,3h[1:1],,E2,E5,E8,,
4h[2:1],,6h[4:5],,E8,E5,E2,3h[4:3],C,,5h[2:3],,E3,E7,Ch[2:1],,
,1,2,3,4^1[4:1],5,6,7,8h[2:1],E7,1h[2:1],E3,5p4[2:1],,,,
C,5,6,7,8^5[4:1],1,2,3h[4:7],E2,E5,E8,E6,E1,E4,Cf,,
{12}7h[6:1],,5,8h[4:1],,,2h[6:1],,4,1h[4:1],,,7,,7,5,,5,4,,4,2h[4:1],,,
{4}1-5[8:1],3,8-4[8:1],6,{12}1h[6:1],,2,1,,1,8,,8,7,,,
7h[6:1],,5,8h[4:1],,,2h[6:1],,4,1h[4:1],,,8,,8,1,,1,{4}8^5[8:1],2,
{12}2,,2,4,,4,5,,5,7,,7,1,,1,8,,8,{2}1b,
{12}3h[6:1],,4,1h[4:1],,,6h[6:1],,5,8h[4:1],,,2,,2,4,,4,5,,5,7h[4:1],,,
{4}8>4[4:1],6,1<5[4:1],3,{12}8h[6:1],,7,8,,8,1,,1,2,,,
3h[6:1],,4,1h[4:1],,,6h[6:1],,5,8h[4:1],,,2,,2,4,,4,5,,5,7x^2[8:1],,,
{4}4,3^6[8:1],8,7,4-1[8:1]/5-8[8:1],,2b/7b,,
3h[4:1],,4h[4:1],,E6,E8,E2,E4,{12}6,,6,5,,5,{2}6h[4:1],{12}3,,3,4,,4,{2}3h[4:1],
{4}6h[4:1],,5h[4:1],,E4,E6,E8,E2,{2}1h[4:1],8h[4:1],
{1},,,
E

MASTER

(120)
{24}E4,E5,{12}E6,1,7,
2^5[8:1],,2,8,,,7^4[8:1],,7,8,,,2z6[4:1],,2,{4}6z2[4:1],8,5,
{12}6-3[4:1],,6,{4}3V57[4:1],1,4,{12}3-6[8:1],,3,{4}6p4[4:1],8h[4:1],,
{12}7^4[8:1],,7,8,,,2^5[8:1],,2,1,,,7s3[4:1],,7,{4}3s7[4:1],1,4,
{12}2-6[8:1],,2,{4}6pp3[4:1],8,5,{12}7V51[4:1],,7,{4}1-4[8:1],3,{12},,6,
5/7h[12:5],,,8,,5,4/6h[12:5],,,1,,4,3/5^8[8:1],,,1/5^2[8:1],,4,58,,,,,3,
2h[12:5]/4,,,1,,4,3h[12:5]/5,,,8,,5,4^1[8:1]/6,,,4^7[8:1]/8,,5,14,,,,,6,
5/7h[12:5],,,8,,5,4/6h[12:5],,,1,,4,3-1[8:1]/5,,,6,,6,3/7h[4:1],,,5>1[4:1],,5,
6,,,4<8[4:1],,4,3,,,5>1[4:1],,5,{4}6,5,3x/7x,,
6^4[8:1],B8/E1,6^4[8:1],B1/E1,7^1[8:1],B5/E6,6^4[8:1],B7/E7,
1>5[4:1],5<1[4:1],1>5[4:1],5-1[8:1],1b,{12}7,,7,{4}5,26,
3^5[8:1],B1/E1,3^5[8:1],B8/E1,2^8[8:1],B4/E4,3^5[8:1],B2/E3,
8<4[4:1],4>8[4:1],8V64[4:1],4V28[4:1],8,4,2b/6b,,
{12}1-5[8:1]/8^3[8:1],,7,18,,,1^6[8:1]/8-4[8:1],,2,18,,,1-5[8:1]/8-3[8:1],,27,1>7[4:1]/8,,,1,,8,8,,,
2V46[8:1]/5-8[8:1],,1,25,,,4/7V53[8:1],,8,47,,2,1-4[8:1],,1,8qq8[8:1],,8,2,,1,1,,,
2^5[8:1]/8^5[8:1],,1,28,,,1^4[8:1]/7^4[8:1],,8,17,,,18,,45,2-5[8:1]/7-4[8:1],,18,27,,,3h[4:1]/6,,5,
4p7[4:1],,4,1,,,5q2[4:1],,5,8,,,4<3[4:1],,4,{4}1,5b,,
{12}1^6[8:1]/8-4[8:1],,2,18,,,1-5[8:1]/8^3[8:1],,7,18,,,1^6[8:1]/8-4[8:1],,2,1pp4[4:1]/8,,,1,,8,8,,,
4-1[8:1]/7V53[8:1],,8,47,,,2V46[8:1]/5,,1,25,,8,8<3[4:1],,3,3pp3[4:1],,2,2,,1,1,,,
2^5[8:1]/8^5[8:1],,1,28,,,1^4[8:1]/7^4[8:1],,8,17,,,18,,45,2^4[8:1]/7^5[8:1],,18,27,,,1b/8b,,,
2q6[8:1]/6,,1,28,,8,3/7p3[8:1],,8,17,,1,2q6[8:1]/6,,1,{4}2/7>5[4:1],7b/Cf,,
{12}3h[6:1]/5,,E7,E6,,,4/6h[6:1],,E3,E4,,,2h[6:1]/5,,6,4/7h[6:1],,3,2h[6:1]/5,,6,37,,,
4/6h[6:1],,E3,E4,,,3h[6:1]/5,,E7,E6,,,4/7h[6:1],,3,2h[6:1]/5,,6,4/7h[6:1],,3,26,,,
6,5,4,3,,,6,5,4,{4}3h[4:1],1h[4:1],8h[4:1],6h[4:1],3,
{12}6,5>1[12:5],4-1[3:1],3,{1},,,,
E

Re:MASTER


名前:
コメント:

タグ:

+ タグ編集
  • タグ:
最終更新:2026年01月08日 20:06