| アーティスト |
DECO*27 / 初音ミク / Leo/need 「プロジェクトセカイ カラフルステージ! feat. 初音ミク」 |
BASIC
(189.8)
{4},
{1}1,,1,,8h[2:3],,,,
1,1,2,2,3,3,4,4x/5x,
4h[1:1],,3h[1:1],,2h[1:1],,1h[1:1]/2h[1:1],,8,8,7,7,6,6,5,4x/5x,
B4,B5,B3,B6,B2,B7,Ch[1:1],,
{2}1b,1,1,,2,2,2,,3,3,3,,4,4,4x/5x,,6,6,6,,7,7,7,,8,8,18,,
8,8,7,,6,6,5,,4,4,3,,2,2,1x/8x,,1,1,2,,3,3,4,,45,45,{1}4h[1:1]/5h[1:1],,,
8-5[4:5],,,{2}1,1,{1}1-4[4:5],,,{2},8,8,{1}8-4[4:5],,,1x,
E1,B1/B8,Chf[4:7],,,,,
E
ADVANCED
(189.8)
{4},
{2}6^1[2:1],,2,12,3^8[2:1],,7,78,{4}6,6,5,,3,3,4,4qq1[4:5]/5qq8[4:5],{1},,
{4}7,6,5,4,3,2,18,,2,3,4,5,6,7,18,,7,7,78,,2,2,12,,{8}8hx[8:3],,,1x,,1x/8x,,2x/7x,{1},
1>6[1:1],,8<3[1:1],,2h[1:1],1h[1:1],8h[1:1],{2}7,7,
6h[2:1],5,{4}3,3,34,,6h[2:1],,5,,3,3,4,,2,2,12,,7,7,78,,1,1,8,8,1,8,27,,
{2}E7,B6,B5,,E3,B3,B4,,E7,B6,B5,B4,B3/B6,B2/B7,Cf,,
{4}8b,7,78,78,6,5,46,,3,3,34,34,2,1,28,,7h[4:1],8,78,,2h[4:1],1,12,,8,8,1,1,18,18,2x/7x,,
3b,34,3,34,2,1,28,,7,78,7,78,6,5,46,,3,4,5,6,4h[2:1]/5h[2:1],,,,
6,6,56,,7^4[2:1],,,,3,3,34,,{1}2^5[2:1],6^1[2:1],2q6[2:1],{4}7,,78,,18,27,36,,
7,7,6,6,5^8[2:1],,,,1,1,2,2,3^8[2:1],,,,7,7,8,8,1,1>8[4:5],,,{1},,
{4}7b,6,5,4,3,2,18,,2,3,4,5,6,7,18,,7,6,5,4,3,2,18,,2,3,4,5,45,45,36,,
7b,8,78,6,5,56,47,,3,4,34,2,1,12,38,,7,8,78,6,5,6,45,4z8[1:1]/5,
,,,,,,,{8}1x/8x,1hx[8:9]/8hx[8:9],
{1},,,,
EXPERT
(189.8)
{4},
{2}3/6<2[2:1],,4hx[2:1],5,{4}6,6,7,7,1pp1[2:1]/8,,,,
6,5,4,3,{8}2,2,{4}8,{2}1/6>7[1:1],,,,E5,
{8}1h[4:1]/8b,,3,3h[4:1],,5,5h[4:1],,7,7h[4:1],,1,1h[4:1],,8,,
3x/7hx[4:1],,5,5h[4:1],,4,4h[4:1],,2,2h[4:1],,8,8h[4:1],,1,,
{4}B6,B5,B4,B3,B2,B1,B8,B7,{8}1hx[8:3],,,8,,18,,3bV15[2:1]/6bV84[2:1],{1},
6^3[4:5],,6^3[4:5],,{4}6h[1:2],5,,5,,4,,3,3h[4:5],4,,4,,5,35,,
{8}6,6,{4}5,46,{8}3,3,{4}4,35,26,,{8}7,7,{4}8,17,{8}2,2,{4}1,28,37,,
{8}7,7,{4}5,46,{8}2,2,{1}4q5[2:1],{8}6,6,{4}5,47,25,1hx[4:1]/8hx[4:1],,2b/7b,,
{2}6h[1:1],E8,5h[1:1],B8,4h[1:1],B1,3h[1:1],E2,{4}4x,3x,2,1,8,7,6,5,
3x/8x,{8}57,57,,24,{4}24,1/5-8[8:1],,,,
2b/6b,1,{8}78,{4}7-4[8:1]/8-4[8:1],,,{8}25,{4}25,3,47,8,{8}12,{4}1-5[8:1]/2-5[8:1],,,{8}7,{4}7h[4:1],5x-1[8:1],
,{8},2,{4}2h[4:1],4x-8[8:1],,{8},17,{4}17,26,35,46,{8}18,{4}18,B3/B6/Cf,,{8}1x,1hx[4:1],,8x,,
{4}2b/7b,46,35,{8}2x-5[8:1]/6x-1[8:1],{4}2x/6x,,{8}3x/7x,3x/7x,,45,,
{4}2x/8x,1x/7x,{8}26,{4}26,3h[4:1]/5h[4:1],,{8}18,{1}1pp1[2:1]/8qq8[2:1],
{4}27,36,4h[2:1]/5h[2:1],,,,
1b/8b,7,46,{8}35,{4}3h[4:1]/5,2h[4:1],1h[4:1],{8}8,8,,
{4}18,2,35,{8}46,{4}4/6h[4:1],7h[4:1],8h[4:1],{8}1,1,,
{4}B3/B6/Cf,,E8,E7,E6,E5,E4,E3,1x/8x,{8}7,7,{4}8,17,{8}2,2,{4}1,28,37,
4b/5b,6,17,{8}28,{4}2h[4:1]/8,3h[4:1],4h[4:1],{8}5,5,,
{4}45,3,28,{8}17,{4}1/7h[4:1],6h[4:1],5h[4:1],{8}4,4q5[2:1],,
{1},{8}1x/8x,1x/8x,1x/8x,1hx[8:13]/8hx[8:13],{1},,{4},3>6[4:3],
Cf,,,,,,45,36,{8}2,2,{4}1,38,{8}7,7,{4}8,16,5,46,
{8}3,3,{4}4,25,{8}6,6,{4}5,47,8,17,{8}2,2,{4}1,38,{8}7,7,{4}8,16,25,34,
{8}2b,2,{4}4,35,{8}7,7,{4}5,46,35,27,{8}6,6,{4}8,17,{8}3,3,{4}1,28,17,36,
{8}2,2,{4}4,35,{8}7,7,{4}5,46,{8}3x/7x,3x/7x,3x/7x,3x>4[8:9]/7x,
{2},,,{8},,1x/6x,1hx[8:9]/6x,{1},
{16}B7,C,B3,{1},,,,
E
MASTER
(189.8)
{4}2-5[8:1]/7-4[8:1],
2x/7x,,,{16}4,5,{8}4h[4:3],,,,,,5,{4}6<2[4:1],2<6[4:1],3,{8}4,{4}4-1[8:1],,8x,
{16}57,,57,,,46,,,{8}35,3h[4:1]/5,,4,4,5,5,{4}46,3-6[8:1]/7-2[8:1],,8b,,
3h[4:1],5,6,{8}4,4h[4:1],,5,{4}2^4[8:1]/7^5[8:1],,B1/B8/E1,
{8}35,4/6-1[8:1],,5,,3,3,4,2,6,5,7,1,1,28,,
64,5/3-8[8:1],,4,,6,6,5,7,3,4,2,8,8,71,,
3h[4:1],,5,5,46,46,{4}37,2-5[8:1],6-1[8:1],3h[4:1],8b,
{8}47,47,3,{4}2h[4:1]/6,8-4[8:1],1/8x,{8}3,4,5,{4}6,4>5[1:1],
{1}Cf,,6^3[4:3],,{4}5,5,5,5,5,5,{8}5,4,45,,5,,6,{4}6,3v1[8:1]/7v5[8:1],,,{8}3,4,5,46,,
{4}7^4[8:1],3,2^5[8:1],5,6^1[8:1],4,3^8[8:1],6,7-3[8:1],{8}3,2,2-6[8:1],,7,7h[4:1],,5,5,,2,2,4-8[8:1],,
1-5[8:1],,6,6,,,8,{4}8,57,24,{8}6,57,,4/8^5[8:1],,2,{4}2h[4:1],5,36,{8}5,5,45,{12}3,4,2,6,5,7,
{2}B3/B4/Ch[2:1],B5/B6,{4}12,2-6[4:1]/3-5[4:1],{2},B5/B6/Ch[2:1],B3/B4,{4}78,6^3[4:1]/7^2[4:1],,,
1h[4:3],3,3,8h[1:1],6,6,6,1,{8}27,27,,46,46,,3h[4:1]/5,,{16}E5,E6,E7,E8,{4},,,
1^4[8:1]/7^4[8:1],17,{8}35,{4}3/5<1[4:1],1>5[4:1],5,{8}1,1,,37,,
{4}5-2[8:1]/6-1[8:1],56,{8}38,{4}3/8-5[8:1],4-1[8:1]/8,4/5x,{16}6,,6h[16:3],,,7h[16:3],,,8,,
{8}8-5[8:1],,5,4,{16}4h[16:3],,,3h[16:3],,,{8}2,2-6[8:1],,6,7,7h[4:1],,1b,,
{4}26,3^8[8:1]/7^4[8:1],37,{8}1x/5x,1x/5x,,{16}3,4,{8}3,1,{4}2^5[8:1]/8^5[8:1],2x/8x,
3-6[8:1]/7-2[8:1],37,{8}48,{4}4/8-3[8:1],5-1[8:1],6,{8}7,{4}7,3>7[4:1],
7>3[4:1],6,{8}5,{4}5-8[8:1],4-1[8:1],5,{16}7,,7h[16:3],,,6h[16:3],,,5,,
{8}5-1[8:1],,1,2,{16}2h[16:3],,,3h[16:3],,,4,,{2}4x/5x,8b,
{4}35,2-6[8:1]/4-8[8:1],24,{8}1,{4}1h[4:1],2,34,{8}56,4/7h[4:1],,
{4}5,4-1[8:1]/8-5[8:1],48,{8}1x,{4}1hx[4:1],4pp8[2:1],3,{8}1,1-5[8:1],,
{4}1x,47,3-8[8:1],5-2[8:1],1-6[8:1],7-4[8:1],{8}3,3,{4}2/5^2[8:1]*^8[8:1],,{8},1x,1s5[4:1],,6,6<3[4:1],{4},,5,3/7^4[8:1],
2^7[8:1],5^2[8:1],8x,{8}2x,2x,,3V14[4:1]*pp4[4:1],{4},,8x,
17,6^3[8:1],2^7[8:1],{8}5,{4}5,37,{16}46,,46,,3,5,3,5,3,5,
{4}3^6[8:1],,1x/8x,{8}5,5,46,46,{4}3-6[8:1]/7-2[8:1],,5<4[1:1],{2},,,{8},36,4-1[8:1]/5-8[8:1],,
4x/5x,,27,,3,3h[4:1],4,5,,6h[4:1],5,4,3^6[8:1],,6,,
7,7h[4:1],8,1,,2h[4:1],1,8,,7h[4:1],8,1,26,,35,,
6,6h[4:1],5,4,,3h[4:1],4,5,,6h[4:1],5,4,3,,2x/5x,,
46,7,8,17,2,3,45,6,{4}6-2[8:1],3-7[8:1],8-4[8:1],1>6[4:1],
7,8qq4[2:1],1b,,{8},1,1h[4:1],,8,27,36,,
7,7h[4:1],5,4,,2h[4:1],4,5,,7h[4:1],5,4,2-6[8:1],,6,,
57,8,1^4[8:1]/8^5[8:1],,18,,36,27,,{16}4,5,{8}4,2,18,18,2/7-3[8:1],2h[8:13]/7,
{1},{4}5,5,8<1[4:3],{8}1b,1b,{1},
{24}E4,B4,B5,E6,{1},,,,
E
Re:MASTER
最終更新:2026年01月08日 20:02