アットウィキロゴ

アイドル新鋭隊

アーティスト Mitchie M / 初音ミク / MORE MORE JUMP!「プロジェクトセカイ カラフルステージ! feat. 初音ミク」

BPM BASIC ADVANCED EXPERT MASTER Re:MASTER
176 2 7 9+ 12 -

EXPERT MASTER Re:MASTER
譜面制作者 隅田川星人 シチミヘルツ -

BASIC

(175.8)
{1}1,1,8,8,
{4}1x,1x,,,{1}2,2,2,{4}3x,3x,,,{1}4,4,45,5,5,6,6,7,7,1x/8x,1b/8b,7h[1:1]/8h[1:1],,1h[1:1]/2h[1:1],,
8,7,6,45,4,3,2,18,1-4[4:3],,8-5[4:3],,1-5[4:3],,8x,8b,
{2}1,1,1,,2,2,2,,3,3,3,,4,4,45,,{1}B5,B4,B6,B3,B7,B2,Chf[1:1],,
{4}8x,8x,,,{1}7,{2}6,6,45,,{4}4x,4x,,,{1}3,{2}2,2,18,,
1,1,12,,3,3,34,,5,5,6,6,7,7,8,{4}1x/8x,1x/8x,
{1},,,,
E

ADVANCED

(175.8)
{4}45,45,,,36,36,,,27,27,,,18,18,,,
27,1b/8b,,,8x,8x,1x/8x,,2,12,7,78,2,18,27,,
18,1b/8b,,,2,2,1x/2x,,7,78,2,12,7,18,27,,
{1}6^1[2:1],2^5[2:1],6^1[2:1],{4}2,1,8,7,
18,27,36,4-1[2:1]/5-8[2:1],,,,,8x,7x,6x,5x,45,36,27,1b/8b,
2,2,1,1,8,8,17,,6,6,5,5,4x/5x,4x/5x,3x/6x,,
{2}7h[2:1],8,2h[2:1],1,7h[2:1],8h[2:1],1h[2:1],2x,
3h[2:1],4,6h[2:1],5,3h[2:1],4h[2:1],5h[2:1],6,
{1}B7/B8,B1/B2,B3/B4,B5/B6,{4}3,3,34,,6,6,56,,4,4,5,4-1[2:1]/5-8[2:1],,,,,
{2}2h[2:1],1h[2:1],8h[2:1],7,{4}2,2,1,,7,7,8,,
{2}6h[2:1],5h[2:1],4h[2:1],3,{4}6,6,5,,4,4,35,,
{1}6^1[2:1],2p6[2:1],7q3[2:1],2^5[2:1],{}
{4}6,6,56,,3,3,34,,{1}4-1[2:1]/5-8[2:1],1b/8b,
{4},Cf,,,1x,1x,1x/8x,,7,78,2,12,7,18,27,,
18,1b/8b,,,7,7,7x/8x,,2,12,7,78,2,18,27,,
{1}3^8[2:1],7^4[2:1],3^8[2:1],{4}7,8,1,2,
18,27,36,4-1[2:1]/5-8[2:1],,,,,1x,2x,3x,4x,45,36,27,1b/8b,
{1},,,
E

EXPERT

(175.8)
{4}17,2/8h[8:3],{8},1x,{4}1x,28,1h[8:3]/7,{8},8x,{4}8x,17,2/8h[8:3],{8},1x,{4}1x,28,1h[4:1]/7h[4:1],,26,
4-1[8:1]/5-8[8:1],,,,46,3q7[4:1]/5,,,8x,57,1,2/4>7[2:1],,,{8},1,1,,
{4}4-8[8:1]/5-1[8:1],,,,45,3qq2[4:1]/6pp7[4:1],,,3x,24,57,6,1h[8:3]/4h[8:3],,{8},25,25,,
3hx[1:1],,4,4,,6,6,,7hx[1:1],,5,5,,3,3,,1hx[4:3],,4,4,,6,{4}6,27,36,45,{8}18,1hx[4:1]/8hx[4:1],
{4},57,24,{8}18,18,,36,36,,27,,36,3qq5[8:5]/6pp4[8:5],{4},,,,46,3h[4:1]/5h[4:1],,1b/8b,
6h[2:1],8x,5h[2:1],8x,6h[2:1],8x,5h[2:1],8x,4h[2:1],1x,3h[4:1],1x,{8}28,28,,3b/7b,,,45,,
{4}6,57,4,35,6,57,4,35,B6/E6,B8/E8,B3/E4,B1/E2,B4/B5,E3/E7,E2/E8,,
3x,24,5,46,3,24,5,46,{2}3^6[4:1],7q3[4:1],2^7[4:1],{4},4x/5x,
3^8[4:1],,,7x,7^4[4:1],,,3x,3^8[4:1],,,7x,7^4[4:1],,,3x,
34,5-8[4:1]/6,,,56,3/4-1[4:1],,,7,46,2,35,2b/6b,,,18,
6,57,4,35,6,57,4,35,6h[4:1],7h[4:1],8h[4:1],1,3h[4:1],2h[4:1],1,,
3,24,5,46,3,24,5,46,E7,E8,E1,E2,E3,E4,E5,,
7^2[4:1],,,3x,3^6[4:1],,,7x,7^2[4:1],,,3x,3^6[4:1],,,7x,
6h[4:1],5h[4:1],4h[4:1],3h[4:1],2h[4:1],1h[4:1],8h[4:1],5x^2[4:1]*^8[4:1],,,,1,B3/B7/Cf,,,,
4-1[8:1]/5-8[8:1],,,,46,3q7[4:1]/5,,,8x,57,1,2/4>7[2:1],,,{8},37,37,,
{4}4-8[8:1]/5-1[8:1],,,,45,3qq2[4:1]/6pp7[4:1],,,3x,24,6,5p1[4:1]/7,,,{8},26,26,,
3hx[1:1],,4,4,,6,6,,7hx[1:1],,5,5,,3,3,,1hx[4:3],,4,4,,6,{4}6,27,36,45,{8}18,1hx[4:1]/8hx[4:1],
{4},57,24,{8}18,18,,36,36,,27,,36,3qq5[8:5]/6pp4[8:5],{4},,,,2h[8:1]/6h[8:1],3h[8:1]/7h[8:1],46,1b/5b,
{1},,,,
E

MASTER

(175.8)
{4}4h[8:1]/6h[8:1],3h[8:1]/5h[8:1],{8},1b,1b,,{4}4h[8:1]/6h[8:1],3h[8:1]/5h[8:1],{8},1b,1b,,
{4}4h[8:1]/6h[8:1],3h[8:1]/5h[8:1],{8},1b,1b,,{4}4/6<3[2:1],1b,,,
4-1[8:1]/5-8[8:1],4b/5b,{8},2x/7x,{4}2x/7x,3q8[8:1]/4^7[8:1],,{8}1x,1x,28,,
{2}5^2[8:1]/6p1[8:1],3q8[8:1]/4^7[8:1],{4}6-3[8:1],2-7[8:1],6-3[8:1],1,
4-1[8:1]/5-8[8:1],4b/5b,{8},2x/7x,{4}2x/7x,3q8[8:1]/4^7[8:1],,{8}1x,1x,28,,
{2}5^2[8:1]/6p1[8:1],3q8[8:1]/4^7[8:1],{4}1-4[8:1],7-3[8:1],5-8[8:1],1b,
{4}4V25[8:3]/6V85[8:3],,,18,3V14[8:3]/5V74[8:3],,,18,1-4[4:1]/6^4[4:1],,,18,27,1-6[8:1]/6-4[8:1],1x/6x,{8}3x/8x,3x/8-4[8:1],
,2,{4}2-5[8:1],1h[4:1],8b,2-5[8:1],7-4[8:1],8h[4:1],1b,
3h[8:1]/8h[8:1],1h[8:1]/8h[8:1],2h[8:1]/7h[8:1],1h[8:1]/3h[8:1],{8}36,36,27,27,{4}4-1[8:1]/5-8[8:1],4b/5b,
,2h[4:1]/7,4h[2:1],1,5h[2:1],8,6h[2:1],8,5h[2:1],8,4h[4:1],1,{8}28,37,,15,{4},,
4b/6b,1b,3b/5b,8b,4b/6b,1b,3b/5b,8b,4/6-8[8:1],5,4/6-8[8:1],5,{8}56,5q4[4:1]/6<3[4:1],{4},,,
7-4[8:1],2-7[8:1],4-1[8:1],,7-4[8:1],2-7[8:1],4-1[8:1],,6-3[8:1],3^6[8:1],1,8,{8}34,3>6[4:1]/4p5[4:1],{4},,,
{8}3q5[4:1],,,8x,8x-4[8:1],,8b,,3q5[4:1],,,8x,8x-4[8:1],,8b,,3q5[4:1],,,8x,8x-4[8:1],,8b,,3q5[4:1],,,8x,8x-4[8:1],,8b,,
{4}5-7[8:1],4-2[8:1],5-8[8:1],4-1[8:1],5-7[8:1],4-2[8:1],5-8[8:1],1,
{8}17,28,1h[8:1]/7h[8:1],,28,17,28,,1b/B1/Cf,,,,,8,1,,
3,3h[8:3],1,,6,6h[8:3],8,,1,1h[8:3],3,,8,8h[8:3],6,,{4}2-7[8:1],6,2-7[8:1]/5,6,{8}34,3>6[4:1]/4p5[4:1],{4},,,
3^6[8:1],E5,7^2[8:1],E1,3^6[8:1],E5,7^2[8:1],E1,3h[8:1],1h[8:1]/7h[8:1],3h[8:1]/4h[8:1],1h[8:1]/7h[8:1],{8}56,5q4[4:1]/6<3[4:1],{4},,,
{8}6p4[4:1],,,1x,1x-5[8:1],,1b,,6p4[4:1],,,1x,1x-5[8:1],,1b,,6p4[4:1],,,1x,1x-5[8:1],,1b,,6p4[4:1],,,1x,1x-5[8:1],,1b,,
{4}7^4[8:1],8v3[8:1],7^4[8:1],8v3[8:1],7^4[8:1],8v3[8:1],7,5w1[2:1],,,,16,4/8b,{8},27,,18,27,36,
{4}4-1[8:1]/5-8[8:1],4b/5b,{8},2x/7x,{4}2x/7x,3^8[8:1]/6q4[8:1],,{8}1x,1x,28,,
{2}3p5[8:1]/6^1[8:1],3^8[8:1]/6q4[8:1],{4}6-3[8:1],2-7[8:1],6-3[8:1],1,
4-1[8:1]/5-8[8:1],4b/5b,{8},2x/7x,{4}2x/7x,2q8[8:1]/7^4[8:1],,{8}1x,1x,28,,
{2}2^5[8:1]/7p1[8:1],2q8[8:1]/7^4[8:1],{4}1x-4[8:1],7-3[8:1],5-8[8:1],1b,
{4}4V25[8:3]/6V85[8:3],,,18,3V14[8:3]/5V74[8:3],,,18,1-4[4:1]/6^4[4:1],,,18,27,1-6[8:1]/6-4[8:1],1x/6x,{8}3x/8x,3x/8-4[8:1],
,2,{4}2-5[8:1],1h[4:1],8b,2-5[8:1],7-4[8:1],8h[4:1],1b,
3h[8:1]/8h[8:1],1h[8:1]/8h[8:1],2h[8:1]/7h[8:1],1h[8:1]/3h[8:1],{8}26,26,37,37,2-5[8:1]/6-1[8:1],,
{24}2b/6b,Cf,{1},,,,
E

Re:MASTER


名前:
コメント:

タグ:

+ タグ編集
  • タグ:
最終更新:2026年08月09日 10:26